Today is a free download without charge Download

Баранкин, будь человеком! (Александра Снежко-Блоцкая) [1963 г., Мультфильм, DVDRip]

Reply to topic
 
Author
Message

Omen ®

Longevity: 7 years 11 months

Posts: 181087

Торрент-статистика

Post 07-Nov-2013 17:04

[Quote]

Баранкин, будь человеком!Страна: СССР
Жанр: Мультфильм
Продолжительность: 0:20:16
Год выпуска: 1963
Выпущено: «Союзмультфильм»
Режиссёр: Александра Снежко-Блоцкая
Русские субтитры: нетОписание:По одноимённой повести В. Медведева.
Ленивый и непослушный ученик Баранкин и его друг-одноклассник Костя Малинин позавидовали беззаботному существованию бабочек, муравьёв, воробьёв… И что из этого вышло.

XV Фестиваль фильмов для детей и юношества в Венеции, 1963 г. — Бронзовая медаль.

Цитаты:
— Если по-настощему захотеть, то даже курносый нос может превратиться в орлиный!
— Оболтус! Уроки учить надо, а не из рогаток стрелять!
— Это кто не хочет учиться?
— Я! … А драться — не педагогично!
— Гнездо вьётся так: в рот берётся соломинка и сворачичивается в колечко.
— А, может, мы и не уснём. Мы ведь не простые бабочки, а человекообразные!
— Странно: выходной день, а они работают.
— Инстинкт. Муравьи ему подчиняются.

Режиссёр и команда

Режиссёр: Александра Снежко-Блоцкая
сценарист В. Медведев
художник-постановщик: Ильдар Урманче
Художники: Ирина Светлица, Е. Танненберг
Аниматоры: Татьяна Фёдорова, Владимир Карп, Татьяна Таранович, Е. Вершинина, Константин Чикин, Борис Чани, О. Столбова, Борис Бутаков, Владимир Крумин, Галина Баринова, Елизавета Комова.
кинооператор: Е. Ризо
композитор: Виталий Гевиксман
звукорежиссёр: Борис Фильчиков
редактор З. Павлова
Качество: DVDRip
Формат: AVI
Видео: 720x544 (1.32:1), 25 fps, XviD build 64 ~2391 kbps avg, 0.24 bit/pixel
Аудио: 48 kHz, AC3 Dolby Digital, 2/0 (L,R) ch, ~192 kbps
Субтитры: отсутствуют

Подробные технические данные

ОбщееПолное имя : D:\Мульты\Barankin_(Zolotaya_kollektziya).aviФормат : AVIФормат/Информация : Audio Video InterleaveРазмер файла : 376 МбайтПродолжительность : 20 м.Общий поток : 2593 Кбит/секПрограмма кодирования : VirtualDubMod 1.5.10.2 (build 2540/release)Библиотека кодирования : VirtualDubMod build 2540/release
ВидеоИдентификатор : 0Формат : MPEG-4 VisualПрофиль формата : Advanced [email protected]Параметр BVOP формата : 2Параметр QPel формата : НетПараметр GMC формата : Без точки переходаПараметр матрицы формата : ВыборочнаяИдентификатор кодека : XVIDИдентификатор кодека/Подсказка : XviDПродолжительность : 20 м.Битрейт : 2392 Кбит/секШирина : 720 пикселейВысота : 544 пикселяСоотношение сторон : 4:3Частота кадров : 25,000 кадров/секЦветовое пространство : YUVСубдискретизация насыщенности : 4:2:0Битовая глубина : 8 битТип развёртки : ПрогрессивнаяМетод сжатия : С потерямиБит/(Пиксели*Кадры) : 0.244Размер потока : 347 Мбайт (92%)Библиотека кодирования : XviD 64
АудиоИдентификатор : 1Формат : AC-3Формат/Информация : Audio Coding 3Расширение режима : CM (complete main)Идентификатор кодека : 2000Продолжительность : 20 м.Вид битрейта : ПостоянныйБитрейт : 192 Кбит/секКаналы : 2 каналаРасположение каналов : Front: L RЧастота : 48,0 КГцБитовая глубина : 16 битМетод сжатия : С потерямиРазмер потока : 27,8 Мбайт (7%)Выравнивание : Разделение по промежуткамПродолжительность промежутка : 40 мс. (1,00 видеокадр)Время предзагрузки промежутка : 500 мс.
Subtitles: Not Present

Скриншоты

-
Other forum [Profile] [PM]
Display posts from previous:    
Reply to topic

The time now is: Today 20:38

All times are GMT + 3 Hours



You cannot post new topics in this forum
You cannot reply to topics in this forum
You cannot edit your posts in this forum
You cannot delete your posts in this forum
You cannot vote in polls in this forum
You cannot attach files in this forum
You cannot download files in this forum