Today is a free download without charge Download

Королевский бутерброд (Андрей Хржановский) [1985 г., Мультфильм, SATRip]

Reply to topic
 
Author
Message

Omen ®

Longevity: 7 years 11 months

Posts: 181087

Торрент-статистика

Post 07-Nov-2013 17:04

[Quote]

Королевский бутербродГод выпуска: 1985
Страна: СССР
Жанр: Мультфильм
Выпущено: «Союзмультфильм»
Продолжительность: ~ 00:09:55
Без субтитров
Режиссёр: Андрей Хржановский
художник-постановщик Владимир Зуйков
xудожники: О. Орехова, Виктор Чугуевский, Ольга Новоселова, Татьяна Макарова, А. Мальцев, Ф. Олейников
аниматоры: Елена Малашенкова, Анатолий Абаренов, Александр Дорогов, Юрий Батанин, Наталия Богомолова, Виолетта Колесникова, Сергей Аврамов
оператор Кабул Расулов
директор Любовь Бутырина
звукорежиссёр Владимир Кутузов
редактор Раиса Фричинская
монтажёр Маргарита Михеева
Текст читает Аркадий Райкин
Описание:
По мотивам стихотворения Алана Александра Милна «Баллада о королевском бутерброде» в переводе С. Маршака.
Музыка В. Шумова в исполнении рок-группы "Центр" и Валентины Пономарёвой.

«Баллада о королевском бутерброде»

Алан Александр Милн
Баллада о королевском бутерброде
(Перевод С. Маршака)
Король, Его величество,
Просил Её величество,
Чтобы Её величество
Спросила у молочницы:
Нельзя ль доставить масла
На завтрак королю.
Придворная молочница
Сказала: "Разумеется,
Схожу,
Скажу
Корове,
Покуда я не сплю!"
Придворная молочница
Пошла к своей корове
И говорит корове,
Лежащей на полу:
"Велели Их величества
Известное количество
Отборнейшего масла
Доставить к их столу!"
Ленивая корова
Ответила спросонья:
"Скажите Их величествам,
Что нынче очень многие
Двуногие-безрогие
Предпочитают мармелад,
А также пастилу!"
Придворная молочница
Сказала: "Вы подумайте!"
И тут же королеве
Представила доклад:
"Сто раз прошу прощения
За это предложение,
Но если Вы намажете
На тонкий ломтик хлеба
Фруктовый мармелад,
Король, Его величество,
Наверно, будет рад!"
Тотчас же королева
Пошла к Его величеству
И, будто между прочим,
Сказала невпопад:
"Ах да, мой друг, по поводу
Обещанного масла...
Хотите ли попробовать
На завтрак мармелад?"
Король ответил:
"Глупости!"
Король сказал:
"О Боже мой!"
Король вздохнул:
"О Господи!" ─
И снова лёг в кровать.
"Ещё никто, ─ сказал он, ─
Никто меня на свете
Не называл капризным...
Просил я только масла
На завтрак мне подать!"
На это королева
Сказала: "Ну конечно!" ─
И тут же приказала
Молочницу позвать.
Придворная молочница
Сказала: "Ну конечно!" ─
И тут же побежала
В коровий хлев опять.
Придворная корова
Сказала: "В чём же дело?
Я ничего дурного
Сказать Вам не хотела.
Возьмите простокваши,
И молока для каши,
И сливочного масла
Могу Вам тоже дать!"
Придворная молочница
Сказала: "Благодарствуйте!"
И масло на подносе
Послала королю.
Король воскликнул: "Масло!
Отличнейшее масло!
Прекраснейшее масло!
Я так его люблю!
Никто, никто, ─ сказал он
И вылез из кровати, ─
Никто, никто, ─ сказал он,
Спускаясь вниз в халате, ─
Никто, никто, ─ сказал он,
Намылив руки мылом, ─
Никто, никто, ─ сказал он,
Съезжая по перилам, ─
Никто не скажет, будто я
Тиран и сумасброд,
За то, что к чаю я люблю
Хороший бутерброд!"
Качество: SATRip
Формат: AVI
Видео: 720x544 (1.32:1), 25 fps, XviD build 64 ~2387 kbps avg, 0.24 bit/pixel
Аудио: 48 kHz, AC3 Dolby Digital, 2/0 (L,R) ch, ~192 kbps

Подробные технические данные

ОбщееПолное имя : D:\Мульты\Korolevskiy_buterbrod_(SATRip,_no_subs).aviФормат : AVIФормат/Информация : Audio Video InterleaveРазмер файла : 184 МбайтПродолжительность : 9 м. 54 с.Общий поток : 2589 Кбит/секПрограмма кодирования : VirtualDubMod 1.5.10.2 (build 2540/release)Библиотека кодирования : VirtualDubMod build 2540/release
ВидеоИдентификатор : 0Формат : MPEG-4 VisualПрофиль формата : Advanced [email protected]Параметр BVOP формата : 2Параметр QPel формата : НетПараметр GMC формата : Без точки переходаПараметр матрицы формата : ВыборочнаяИдентификатор кодека : XVIDИдентификатор кодека/Подсказка : XviDПродолжительность : 9 м. 54 с.Битрейт : 2387 Кбит/секШирина : 720 пикселейВысота : 544 пикселяСоотношение сторон : 4:3Частота кадров : 25,000 кадров/секЦветовое пространство : YUVСубдискретизация насыщенности : 4:2:0Битовая глубина : 8 битТип развёртки : ПрогрессивнаяМетод сжатия : С потерямиБит/(Пиксели*Кадры) : 0.244Размер потока : 169 Мбайт (92%)Библиотека кодирования : XviD 64
АудиоИдентификатор : 1Формат : AC-3Формат/Информация : Audio Coding 3Расширение режима : CM (complete main)Идентификатор кодека : 2000Продолжительность : 9 м. 54 с.Вид битрейта : ПостоянныйБитрейт : 192 Кбит/секКаналы : 2 каналаРасположение каналов : Front: L RЧастота : 48,0 КГцБитовая глубина : 16 битМетод сжатия : С потерямиРазмер потока : 13,6 Мбайт (7%)Выравнивание : Разделение по промежуткамПродолжительность промежутка : 40 мс. (1,00 видеокадр)Время предзагрузки промежутка : 500 мс.
Subtitles: Not Present

Скриншоты

Other forum [Profile] [PM]
Similar theme
Forum Topic Author Torrent Replies Last Post
./templates/default/images/folder_dl.gif Rock Король и Шут / Документальный фильм о Михаиле Горшенёве - "Король Шутов" (Михаил Мирого) [2014, Документальный, WEB-DLRip 720p] Omen
1 | 0

0 | 673

4

2014-07-18 14:46
Omen Latest
./templates/default/images/folder_dl.gif Комиксы, Графика, Wallpapers, Арт Королькова А. - Живая типографика [2007, PDF, RUS] Omen
1 | 0

0 | 842

0

2016-08-16 01:01
Omen Latest
Display posts from previous:    
Reply to topic

The time now is: Today 03:00

All times are GMT + 3 Hours



You cannot post new topics in this forum
You cannot reply to topics in this forum
You cannot edit your posts in this forum
You cannot delete your posts in this forum
You cannot vote in polls in this forum
You cannot attach files in this forum
You cannot download files in this forum