Today is a free download without charge Download

Чистильщик / Cleaner (Ренни Харлин) [2007 г., триллер, криминал,, ВDRip720p]

Reply to topic
 
Author
Message

Delia ®

Gender:

Longevity: 10 years

Posts: 1821

Торрент-статистика

Post 27-Oct-2011 08:37

[Quote]

ЧистильщикCleaner Год выпуска: 2007
Страна: США
Жанр: триллер, криминал,
Продолжительность: 01:28:53
Перевод: Дублированный
Режиссер: Ренни Харлин
Продюссер: Дэнни Димборт, Дэвид Промьер, Эли Селден
Сценарий: Мэттью Олдрич
Бюджет: $25 000 000
Премьера в мире: 11 сентября 2007
В ролях: Сэмюэл Л. Джексон, Ева Мендес, Эд Харрис, Джон Т. Биллингсли, Эрик Браун, Криста Кэмпбелл, Хосе Пабло Кантилльо, Кип Каммингс, Брэд Дисон, Тед Фергюсон, Роберт Форстер, Питер Францен, Майк Гай, Луис Гузман
Описание: Главный герой картины работает чистильщиком — он убирает… места преступлений. Однажды случилось так, что «чистильщик» убрал место убийства свидетеля, проходящего по делу о взяточничестве в полиции. Теперь герой вынужден сам разгадать загадку, прежде чем признает свое присутствие на месте преступления. Он рискует головой, так как только он знает, что к делу об убийстве причастен полицейский.
Качество: BDRip 720p
Формат: MKV
Видео кодек: H.264
Аудио кодек: AC3
Видео: English, 5833 Кбит/сек, 1280*720 (16:9), в 23,976 кадр/сек, AVC ([email protected])
Аудио: Russian, 448 Кбит/сек, 48,0 КГц, 16 бит, 6 канала(ов), AC-3 | дубляж
Аудио:Russian, 448 Кбит/сек, 48,0 КГц, 16 бит, 6 канала(ов), AC-3 | MVO
Аудио:English, 320 Кбит/сек, 48,0 КГц, 16 бит, 6 канала(ов), AC-3 | оригинал
Субтитры:Russian ( srt)

MI:

Код:
Общее
Уникальный идентификатор         : 227334632784276396867527893913435210403 (0xAB070EC34CF75B799DD2DC7E009182A3)
Полное имя                       : E:\торрент\Chistilwik.2007.BDRip720p.mkv
Формат                           : Matroska
Размер файла                     : 4,37 Гбайт
Продолжительность                : 1 ч. 28 м.
Общий поток                      : 7040 Кбит/сек
Дата кодирования                 : UTC 2011-10-27 04:39:09
Программа кодирования            : mkvmerge v5.0.1 ('Es ist Sommer') built on Oct  9 2011 11:55:43
Библиотека кодирования           : libebml v1.2.2 + libmatroska v1.3.0
Видео
Идентификатор                    : 1
Формат                           : AVC
Формат/Информация                : Advanced Video Codec
Профиль формата                  : [email protected]
Параметр CABAC формата           : Да
Параметр ReFrames формата        : 8 кадры
Идентификатор кодека             : V_MPEG4/ISO/AVC
Продолжительность                : 1 ч. 28 м.
Битрейт                          : 5833 Кбит/сек
Ширина                           : 1280 пикс.
Высота                           : 720 пикс.
Соотношение сторон               : 16:9
Частота кадров                   : 23,976 кадр/сек
Цветовое пространство            : YUV
Подвыборка цветности             : 4:2:0
Битовая глубина                  : 8 бит
Тип развёртки                    : Прогрессивная
Бит/(Пиксели*Кадры)              : 0.264
Размер потока                    : 3,53 Гбайт (81%)
Библиотека кодирования           : x264 core 119 r2106 07efeb4
Настройки программы              : cabac=1 / ref=8 / deblock=1:-2:-2 / analyse=0x3:0x113 / me=esa / subme=9 / psy=1 / psy_rd=1.00:0.20 / mixed_ref=1 / me_range=32 / chroma_me=1 / trellis=2 / 8x8dct=1 / cqm=0 / deadzone=21,11 / fast_pskip=0 / chroma_qp_offset=-3 / threads=6 / sliced_threads=0 / nr=0 / decimate=0 / interlaced=0 / bluray_compat=0 / constrained_intra=0 / bframes=6 / b_pyramid=2 / b_adapt=2 / b_bias=0 / direct=1 / weightb=1 / open_gop=0 / weightp=2 / keyint=250 / keyint_min=23 / scenecut=40 / intra_refresh=0 / rc_lookahead=60 / rc=2pass / mbtree=1 / bitrate=5833 / ratetol=1.0 / qcomp=0.65 / qpmin=10 / qpmax=51 / qpstep=4 / cplxblur=20.0 / qblur=0.5 / ip_ratio=1.40 / aq=2:1.00
Язык                             : English
Аудио #1
Идентификатор                    : 2
Формат                           : AC-3
Формат/Информация                : Audio Coding 3
Расширение режима                : CM (complete main)
Идентификатор кодека             : A_AC3
Продолжительность                : 1 ч. 28 м.
Вид битрейта                     : Постоянный
Битрейт                          : 448 Кбит/сек
Канал(ы)                         : 6 канала(ов)
Расположение каналов             : Front: L C R, Side: L R, LFE
Частота                          : 48,0 КГц
Битовая глубина                  : 16 бит
Метод сжатия                     : С потерями
Размер потока                    : 285 Мбайт (6%)
Язык                             : Russian
Аудио #2
Идентификатор                    : 3
Формат                           : AC-3
Формат/Информация                : Audio Coding 3
Расширение режима                : CM (complete main)
Идентификатор кодека             : A_AC3
Продолжительность                : 1 ч. 28 м.
Вид битрейта                     : Постоянный
Битрейт                          : 448 Кбит/сек
Канал(ы)                         : 6 канала(ов)
Расположение каналов             : Front: L C R, Side: L R, LFE
Частота                          : 48,0 КГц
Битовая глубина                  : 16 бит
Метод сжатия                     : С потерями
Размер потока                    : 285 Мбайт (6%)
Язык                             : Russian
Аудио #3
Идентификатор                    : 4
Формат                           : AC-3
Формат/Информация                : Audio Coding 3
Расширение режима                : CM (complete main)
Идентификатор кодека             : A_AC3
Продолжительность                : 1 ч. 28 м.
Вид битрейта                     : Постоянный
Битрейт                          : 320 Кбит/сек
Канал(ы)                         : 6 канала(ов)
Расположение каналов             : Front: L C R, Side: L R, LFE
Частота                          : 48,0 КГц
Битовая глубина                  : 16 бит
Метод сжатия                     : С потерями
Размер потока                    : 203 Мбайт (5%)
Язык                             : English
Текст
Идентификатор                    : 5
Формат                           : UTF-8
Идентификатор кодека             : S_TEXT/UTF8
Идентификатор кодека/Информация  : UTF-8 Plain Text

Скриншоты

           

_________________
Человек – это канат, натянутый между животным и сверхчеловеком, – канат над пропастью.
В человеке ценно то, что он мост, а не цель. Фридрих Ницше
Other forum [Profile] [PM]
Display posts from previous:    
Reply to topic

The time now is: Today 10:02

All times are GMT + 3 Hours



You cannot post new topics in this forum
You cannot reply to topics in this forum
You cannot edit your posts in this forum
You cannot delete your posts in this forum
You cannot vote in polls in this forum
You cannot attach files in this forum
You cannot download files in this forum