Today is a free download without charge Download

История о девочке, наступившей на хлеб (Алла Грачева) [1986 г., мультфильм, DVB]

Reply to topic
 
Author
Message

Omen ®

Longevity: 7 years 11 months

Posts: 181087

Торрент-статистика

Post 06-Nov-2013 20:52

[Quote]

История о девочке, наступившей на хлеб
Жанр: мультфильм
Год выпуска: 1986
Продолжительность: 00:09:57
Режиссёр: Алла Грачева
Описание: мультфильм о том, как девочка Инга постоянно смотрелась в зеркало и даже собаку покормить не хотела. Не хотела она и со сверстниками играть. Прохожим она пускала в глаза солнечные зайчики, чтобы они упали. Злая была девочка. Попросила ее мама отнести бабушке свежеиспеченный хлеб. Та согласилась с условием, что ей разрешат надеть новые башмачки, и отправилась. Чтобы перейти через лужу, положила она на лужу хлеб и провалилась в болото. Попала девочка к злой болотной ведьме. А что было дальше, посмотрите сами ...
Доп. информация: по мотивам сказки Ганса Христиана Андерсена

Трансляция спутникового канала: "Карусель"
Качество видео: DVB
Формат видео: MPEG-PS
Видео: MPEG2 Video, 720x576, 25 fps, 3200 kbps
Аудио: MPEG Audio, 2 сh, 48 kHz, 192 kbps

MediaInfo

D:\История о девочке, которая наступила на хлеб. (1986)_DVB by SLuMeP.mpg
General
Complete name : D:\История о девочке, которая наступила на хлеб. (1986)_DVB by SLuMeP.mpg
Format : MPEG-PS
File size : 249 MiB
Duration : 9mn 57s
Overall bit rate mode : Variable
Overall bit rate : 3 492 Kbps
Video #224
ID : 224 (0xE0)
Format : MPEG Video
Format version : Version 2
Format profile : [email protected]
Format settings, BVOP : Yes
Format settings, Matrix : Custom
Duration : 9mn 57s
Bit rate mode : Variable
Bit rate : 3 231 Kbps
Maximum bit rate : 5 000 Kbps
Width : 720 pixels
Height : 576 pixels
Display aspect ratio : 4:3
Frame rate : 25.000 fps
Standard : PAL
Color space : YUV
Chroma subsampling : 4:2:0
Bit depth : 8 bits
Scan type : Interlaced
Scan order : Top Field First
Compression mode : Lossy
Bits/(Pixel*Frame) : 0.312
Stream size : 230 MiB (93%)
Audio #192
ID : 192 (0xC0)
Format : MPEG Audio
Format version : Version 1
Format profile : Layer 2
Duration : 9mn 57s
Bit rate mode : Constant
Bit rate : 192 Kbps
Channel(s) : 2 channels
Sampling rate : 48.0 KHz
Compression mode : Lossy
Stream size : 13.7 MiB (5%)

Скриншоты

Other forum [Profile] [PM]
Similar theme
Forum Topic Author Torrent Replies Last Post
./templates/default/images/folder_dl.gif Зарубежное кино Изгой-один: Звёздные войны. Истории / Rogue One: A Star Wars Story (Гарет Эдвардс) [2016 г., фантастика, боевик, приключения, BDRip 1080p] DUB | Чистый звук Theseus
1 | 0

0 | 7773

8

2017-03-22 11:05
Theseus Latest
./templates/default/images/folder_dl.gif Фильмы 2011-2020 Братство (Павел Лунгин) [2019, драма, боевик, история, военный, HDRip] [FRA Transfer] [Лицензия] Орлов Владимир
1 | 0

0 | 669

4

2020-02-05 18:55
Орлов Владимир Latest
./templates/default/images/folder_dl.gif Фильмы 2011-2020 Братство (Павел Лунгин) [2019, драма, боевик, история, военный, HDRip] [FRA Transfer] [Лицензия] Орлов Владимир
1 | 0

0 | 657

3

2020-02-05 18:58
Орлов Владимир Latest
./templates/default/images/folder_dl.gif Зарубежное кино Захар Беркут | The Rising Hawk (Ахтем Сейтаблаев, Джон Винн) [2019 г., Боевик, драма, история, WEB-DL 1080p] | MVO (HDRezka Studio) Theseus
1 | 0

0 | 1003

0

2020-07-31 13:24
Theseus Latest
./templates/default/images/folder_dl.gif Новинки (HD|DVD|BD|WEB|TV|SAT|PDTV|-Rip) Грейхаунд / Greyhound (Аарон Шнайдер) [2020 г., военный, боевик, история, биография, WEB-DLRip] DUB kilmister777
1 | 0

0 | 376

0

2020-10-18 10:56
kilmister777 Latest
Display posts from previous:    
Reply to topic

The time now is: Today 09:26

All times are GMT + 3 Hours



You cannot post new topics in this forum
You cannot reply to topics in this forum
You cannot edit your posts in this forum
You cannot delete your posts in this forum
You cannot vote in polls in this forum
You cannot attach files in this forum
You cannot download files in this forum