Today is a free download without charge Download

Семейка Крудс / The Croods (Крис Сандерс, Кирк де Микко) [2013, мультфильм, BD-Remux] DUB [Лицензия]

Reply to topic
 
Author
Message

DED ®

Gender:

Longevity: 7 years 1 month

Posts: 4239

Location: СССР

Торрент-статистика

Post 05-Nov-2013 14:05

[Quote]

--Семейка Крудс / The Croods-«Если они не эволюционируют, то станут историей»-- Год выхода: 2013
Страна: США
Студия: Dream Works Animation
Жанр: мультфильм, комедия, приключения, семейный
Продолжительность: 01:38:36
Перевод: Профессиональный (полное дублирование) [Лицензия]-Режиссер: Крис Сандерс, Кирк де Микко-В ролях: Эмма Стоун, Райан Рейнольдс, Николас Кейдж, Кэтрин Кинер, Клорис Личмен, Кларк Дьюк, Крис Сандерс...-О фильме: Чего только не сделаешь ради сохранения семьи, несмотря на то, что она доисторическая! Вот и мужественный глава семейства был твёрдо уверен - главное не позволять никогда и ничего менять и всегда жить "как в каменном веке" - по своим привычным правилам, в своей известной вдоль и поперёк пещере! И может, всё бы так и было бы, но однажды землетрясение нарушает привычный жизненный уклад и вынуждает срочно искать другую, неизвестную пока, пещеру, в непонятном и переменчивом мире, полном страшных опасностей и разных незнакомцев всех видов и мастей! Будет ли той семейке и на новом месте веселее вместе и что поможет ей выжить и достичь заветной цели?-- --Качество: BD-Remux
Формат: MKV
Видео кодек: H.264
Аудио кодек: AC3
Видео: 1920x1080p (1.78:1), 23.976 fps, MPEG-4 AVC, ~27.2 Mbps avg, 0.547 bit/pixel
Аудио: 48.0 kHz, AC3 Dolby Digital, 3/2 (L,C,R,l,r) + LFE ch, ~640.00 kbps avg
Субтитры: нет--

Media Info

Код:
General
Unique ID                                : 177078736747709234301076985679894358173 (0x85381FC90F1E74C1A823A29692B9289D)
Complete name                            : G:3.1 МультфильмыThe Croods 2013 BDRemux 1920х816 27.8-28.4 0.56.mkv
Format                                   : Matroska
Format version                           : Version 2
File size                                : 19.6 GiB
Duration                                 : 1h 38mn
Overall bit rate mode                    : Variable
Overall bit rate                         : 28.4 Mbps
Encoded date                             : UTC 2013-09-19 16:34:15
Writing application                      : mkvmerge v5.4.0 ('Piper') built on Mar 10 2012 13:34:39
Writing library                          : libebml v1.2.3 + libmatroska v1.3.0
Video
ID                                       : 1
Format                                   : AVC
Format/Info                              : Advanced Video Codec
Format profile                           : [email protected]
Format settings, CABAC                   : Yes
Format settings, ReFrames                : 3 frames
Codec ID                                 : V_MPEG4/ISO/AVC
Duration                                 : 1h 38mn
Bit rate mode                            : Variable
Bit rate                                 : 27.2 Mbps
Maximum bit rate                         : 30.0 Mbps
Width                                    : 1 920 pixels
Height                                   : 1 080 pixels
Display aspect ratio                     : 16:9
Frame rate mode                          : Constant
Frame rate                               : 23.976 fps
Color space                              : YUV
Chroma subsampling                       : 4:2:0
Bit depth                                : 8 bits
Scan type                                : Progressive
Bits/(Pixel*Frame)                       : 0.547
Stream size                              : 18.7 GiB (96%)
Default                                  : Yes
Forced                                   : No
Audio
ID                                       : 2
Format                                   : AC-3
Format/Info                              : Audio Coding 3
Mode extension                           : CM (complete main)
Format settings, Endianness              : Big
Codec ID                                 : A_AC3
Duration                                 : 1h 38mn
Bit rate mode                            : Constant
Bit rate                                 : 640 Kbps
Channel(s)                               : 6 channels
Channel positions                        : Front: L C R, Side: L R, LFE
Sampling rate                            : 48.0 KHz
Bit depth                                : 16 bits
Compression mode                         : Lossy
Stream size                              : 451 MiB (2%)
Language                                 : Russian
Default                                  : Yes
Forced                                   : No

Скриншоты

     
     
-- --

_________________

==============================
IGNOSCITO SAEPE ALTERI, NUNQUAM TIBI
Other forum [Profile] [PM]

Dracula

Longevity: 7 years 1 month

Posts: 11387

Торрент-статистика

Post 01-Jan-2014 17:15 (after 1 month 26 days)

Топик был перенесен из форума Мультфильмы (HD) в форум Мультфильмы


Delia
 
Display posts from previous:    
Reply to topic

The time now is: Today 07:42

All times are GMT + 3 Hours



You cannot post new topics in this forum
You cannot reply to topics in this forum
You cannot edit your posts in this forum
You cannot delete your posts in this forum
You cannot vote in polls in this forum
You cannot attach files in this forum
You cannot download files in this forum