Today is a free download without charge Download

(Downtempo, Lounge, Chillout) - V.A. - Obsession Lounge 1-3 © 2006-2008 - (2006-2008) (Flac+tracks+.CUE) Lossless

Reply to topic
 
Author
Message

Koralina ®

Longevity: 9 years 6 months

Posts: 994

Location: Lithuania

Торрент-статистика

Post 24-Oct-2011 18:45

[Quote]

V.A. - Obsession Lounge 1-3 © 2006-2008 Производство: VA
Жанр: Downtempo, Lounge, Chillout
Год издания: 2006-2008
Аудио кодеки: Flac
Битрейт аудио: Lossless
Тип рипа: tracks+.cue
Продолжительность: 06: 24: 52

V.A. — Obsession Lounge © 2006

Tracks.Flac + .cue + .log + Covers
Продолжительность: 02.00.30

Tracklist CD1:
01. Drivetrain — Sun Shine Down
02. Zen-Men Feat. Caroline — Une Table Б Trois
03. Lounge Conjunction — Composite Five
04. Pat Appleton With Naoki Kenji — Mellow
05. Zilverzurf Feat. Desmond Foster — A Moment Of Dub
06. Fogger — One Step Beyond
07. Orientation — 9 In Istanbul, 8 In Berlin
08. Sunyata Project — Sudden Moments
09. Fous De La Mer — Conmigo
10. Roberto Sol — Miles Beyond
11. Cyron Florzinho — Valisere Africa (Dub Mix)
12. Lenny Ibizarre — Navegando
13. Jam & Spoon — Hispanos In Space (Remix 2005)

Log

Exact Audio Copy V0.99 prebeta 4 from 23. January 2008
EAC extraction logfile from 20. November 2008, 10:28
Various / Obsession Lounge - CD1
Used drive : PIONEER DVD-RW DVR-112D Adapter: 3 ID: 0
Read mode : Secure
Utilize accurate stream : Yes
Defeat audio cache : Yes
Make use of C2 pointers : No
Read offset correction : 48
Overread into Lead-In and Lead-Out : No
Fill up missing offset samples with silence : Yes
Delete leading and trailing silent blocks : No
Null samples used in CRC calculations : Yes
Used interface : Installed external ASPI interface
Used output format : User Defined Encoder
Selected bitrate : 192 kBit/s
Quality : Low
Add ID3 tag : Yes
Command line compressor : C:\Program Files\E A C Audio\Flac\flac.exe
Additional command line options : -V -8 -T "artist=%a" -T "title=%t" -T "album=%g" -T "date=%y" -T "tracknumber=%n" -T "genre=%m" %s
TOC of the extracted CD
Track | Start | Length | Start sector | End sector
---------------------------------------------------------
1 | 0:00.00 | 1:11.56 | 0 | 5380
2 | 1:11.56 | 5:29.65 | 5381 | 30120
3 | 6:41.46 | 3:26.30 | 30121 | 45600
4 | 10:08.01 | 4:38.70 | 45601 | 66520
5 | 14:46.71 | 3:32.18 | 66521 | 82438
6 | 18:19.14 | 4:01.58 | 82439 | 100571
7 | 22:20.72 | 6:44.67 | 100572 | 130938
8 | 29:05.64 | 4:53.35 | 130939 | 152948
9 | 33:59.24 | 4:41.38 | 152949 | 174061
10 | 38:40.62 | 4:08.54 | 174062 | 192715
11 | 42:49.41 | 4:25.45 | 192716 | 212635
12 | 47:15.11 | 6:25.22 | 212636 | 241532
13 | 53:40.33 | 8:01.02 | 241533 | 277609
Range status and errors
Selected range
Filename G:\lossless-room.nnm.ru\Various - Obsession Lounge 1\Various - Obsession Lounge - CD1.wav
Peak level 97.7 %
Range quality 100.0 %
Test CRC 099D162A
Copy CRC 099D162A
Copy OK
No errors occurred
AccurateRip summary
Track 1 accurately ripped (confidence 3) [4E60B848]
Track 2 accurately ripped (confidence 3) [2D3B4117]
Track 3 accurately ripped (confidence 3) [1DEC0652]
Track 4 accurately ripped (confidence 3) [14F8B48D]
Track 5 accurately ripped (confidence 3) [44817094]
Track 6 accurately ripped (confidence 3) [7103CC47]
Track 7 accurately ripped (confidence 3) [1BDEC78D]
Track 8 accurately ripped (confidence 3) [B24943AA]
Track 9 accurately ripped (confidence 3) [529D03B0]
Track 10 accurately ripped (confidence 3) [23FF8803]
Track 11 accurately ripped (confidence 3) [48047609]
Track 12 accurately ripped (confidence 3) [BCD8BC02]
Track 13 accurately ripped (confidence 3) [0F76D0F4]
All tracks accurately ripped
End of status report

CUE

;
;--[ Created by Medieval CUE Splitter! ]--
;
;
REM GENRE Jazz
REM DATE 2006
REM PLACE http://lossless-room.nnm.ru
REM DISCID 8E0E750D
REM COMMENT "ExactAudioCopy v0.99pb4"
TITLE "Obsession Lounge - CD1"
PERFORMER Various
FILE "(01) [Drivetrain] Sun Shine Down.flac" WAVE
TRACK 01 AUDIO
TITLE "Sun Shine Down"
PERFORMER Drivetrain
INDEX 01 00:00:00
FILE "(02) [Zen-Men Feat. Caroline] Une Table Б Trois.flac" WAVE
TRACK 02 AUDIO
TITLE "Une Table Б Trois"
PERFORMER "Zen-Men Feat. Caroline"
INDEX 01 00:00:00
FILE "(03) [Lounge Conjunction] Composite Five.flac" WAVE
TRACK 03 AUDIO
TITLE "Composite Five"
PERFORMER "Lounge Conjunction"
INDEX 01 00:00:00
FILE "(04) [Pat Appleton With Naoki Kenji] Mellow.flac" WAVE
TRACK 04 AUDIO
TITLE Mellow
PERFORMER "Pat Appleton With Naoki Kenji"
INDEX 01 00:00:00
FILE "(05) [Zilverzurf Feat. Desmond Foster] A Moment Of Dub.flac" WAVE
TRACK 05 AUDIO
TITLE "A Moment Of Dub"
PERFORMER "Zilverzurf Feat. Desmond Foster"
INDEX 01 00:00:00
FILE "(06) [Fogger] One Step Beyond.flac" WAVE
TRACK 06 AUDIO
TITLE "One Step Beyond"
PERFORMER Fogger
INDEX 01 00:00:00
FILE "(07) [Orientation] 9 In Istanbul, 8 In Berlin.flac" WAVE
TRACK 07 AUDIO
TITLE "9 In Istanbul, 8 In Berlin"
PERFORMER Orientation
INDEX 01 00:00:00
FILE "(08) [Sunyata Project] Sudden Moments.flac" WAVE
TRACK 08 AUDIO
TITLE "Sudden Moments"
PERFORMER "Sunyata Project"
INDEX 01 00:00:00
FILE "(09) [Fous De La Mer] Conmigo.flac" WAVE
TRACK 09 AUDIO
TITLE Conmigo
PERFORMER "Fous De La Mer"
INDEX 01 00:00:00
FILE "(10) [Roberto Sol] Miles Beyond.flac" WAVE
TRACK 10 AUDIO
TITLE "Miles Beyond"
PERFORMER "Roberto Sol"
INDEX 01 00:00:00
FILE "(11) [Cyron Florzinho] Valisere Africa (Dub Mix).flac" WAVE
TRACK 11 AUDIO
TITLE "Valisere Africa (Dub Mix)"
PERFORMER "Cyron Florzinho"
INDEX 01 00:00:00
FILE "(12) [Lenny Ibizarre] Navegando.flac" WAVE
TRACK 12 AUDIO
TITLE Navegando
PERFORMER "Lenny Ibizarre"
INDEX 01 00:00:00
FILE "(13) [Jam & Spoon] Hispanos In Space (Remix 2005).flac" WAVE
TRACK 13 AUDIO
TITLE "Hispanos In Space (Remix 2005)"
PERFORMER "Jam & Spoon"
INDEX 01 00:00:00
Tracklist CD2:
01. R. Eberspacher — Sand (Original Mix)
02. Ante Rem — Sacra Samba (Original Mix)
03. Campa — Drowned
04. Christophe Goze — Hi Honey
05. Dos Palomas Negras — The Night Is On The Run
06. Chantal Miccat — La Vien En Rouge
07. Chris Le Blanc Feat. Lisa De Andrade — Flor De Vida
08. Mo' Horizons — Foto Viva (Nicola Conte Remix)
09. Parov Stelar — For All We Know
10. Konferenz — Konspiration V1.
11. Jean F. Cochois — Electronique Love
12. Kenneth Bager — Fragment One
13. Ocean Deep Feat. Rhonda Bellamy — Stardust Into Men

Log CD

Exact Audio Copy V0.99 prebeta 4 from 23. January 2008
EAC extraction logfile from 20. November 2008, 10:51
Various / Obsession Lounge - CD2
Used drive : PIONEER DVD-RW DVR-112D Adapter: 3 ID: 0
Read mode : Secure
Utilize accurate stream : Yes
Defeat audio cache : Yes
Make use of C2 pointers : No
Read offset correction : 48
Overread into Lead-In and Lead-Out : No
Fill up missing offset samples with silence : Yes
Delete leading and trailing silent blocks : No
Null samples used in CRC calculations : Yes
Used interface : Installed external ASPI interface
Used output format : User Defined Encoder
Selected bitrate : 192 kBit/s
Quality : Low
Add ID3 tag : Yes
Command line compressor : C:\Program Files\E A C Audio\Flac\flac.exe
Additional command line options : -V -8 -T "artist=%a" -T "title=%t" -T "album=%g" -T "date=%y" -T "tracknumber=%n" -T "genre=%m" %s
TOC of the extracted CD
Track | Start | Length | Start sector | End sector
---------------------------------------------------------
1 | 0:00.00 | 5:24.15 | 0 | 24314
2 | 5:24.15 | 5:51.19 | 24315 | 50658
3 | 11:15.34 | 4:51.25 | 50659 | 72508
4 | 16:06.59 | 4:29.14 | 72509 | 92697
5 | 20:35.73 | 4:04.46 | 92698 | 111043
6 | 24:40.44 | 3:18.05 | 111044 | 125898
7 | 27:58.49 | 4:54.41 | 125899 | 147989
8 | 32:53.15 | 4:46.03 | 147990 | 169442
9 | 37:39.18 | 4:11.65 | 169443 | 188332
10 | 41:51.08 | 3:40.72 | 188333 | 204904
11 | 45:32.05 | 4:43.00 | 204905 | 226129
12 | 50:15.05 | 3:33.11 | 226130 | 242115
13 | 53:48.16 | 5:00.54 | 242116 | 264669
Range status and errors
Selected range
Filename G:\lossless-room.nnm.ru\Various - Obsession Lounge 1\Various - Obsession Lounge - CD2.wav
Peak level 95.6 %
Range quality 100.0 %
Test CRC 8E8DA1F4
Copy CRC 8E8DA1F4
Copy OK
No errors occurred
AccurateRip summary
Track 1 accurately ripped (confidence 3) [293CA357]
Track 2 accurately ripped (confidence 3) [ABA8C8D1]
Track 3 accurately ripped (confidence 3) [A3DCBD98]
Track 4 accurately ripped (confidence 3) [54266078]
Track 5 accurately ripped (confidence 3) [E36E969F]
Track 6 accurately ripped (confidence 3) [0EA89C2B]
Track 7 accurately ripped (confidence 3) [D547DFA9]
Track 8 accurately ripped (confidence 3) [6920EAA8]
Track 9 accurately ripped (confidence 3) [50D5DFE5]
Track 10 accurately ripped (confidence 3) [07B26655]
Track 11 accurately ripped (confidence 3) [579D5947]
Track 12 accurately ripped (confidence 3) [9A7E12C9]
Track 13 accurately ripped (confidence 3) [58C574DC]
All tracks accurately ripped
End of status report

CUE

;
;--[ Created by Medieval CUE Splitter! ]--
;
;
REM GENRE Lo-Fi
REM DATE 2006
REM PLACE http://lossless-room.nnm.ru
REM DISCID B20DC80D
REM COMMENT "ExactAudioCopy v0.99pb4"
TITLE "Obsession Lounge - CD2"
PERFORMER Various
FILE "(01) [R. Eberspacher] Sand (Original Mix).flac" WAVE
TRACK 01 AUDIO
TITLE "Sand (Original Mix)"
PERFORMER "R. Eberspacher"
INDEX 01 00:00:00
FILE "(02) [Ante Rem] Sacra Samba (Original Mix).flac" WAVE
TRACK 02 AUDIO
TITLE "Sacra Samba (Original Mix)"
PERFORMER "Ante Rem"
INDEX 01 00:00:00
FILE "(03) [Campa] Drowned.flac" WAVE
TRACK 03 AUDIO
TITLE Drowned
PERFORMER Campa
INDEX 01 00:00:00
FILE "(04) [Christophe Goze] Hi Honey.flac" WAVE
TRACK 04 AUDIO
TITLE "Hi Honey"
PERFORMER "Christophe Goze"
INDEX 01 00:00:00
FILE "(05) [Dos Palomas Negras] The Night Is On The Run.flac" WAVE
TRACK 05 AUDIO
TITLE "The Night Is On The Run"
PERFORMER "Dos Palomas Negras"
INDEX 01 00:00:00
FILE "(06) [Chantal Miccat] La Vien En Rouge.flac" WAVE
TRACK 06 AUDIO
TITLE "La Vien En Rouge"
PERFORMER "Chantal Miccat"
INDEX 01 00:00:00
FILE "(07) [Chris Le Blanc Feat. Lisa De Andrade] Flor De Vida.flac" WAVE
TRACK 07 AUDIO
TITLE "Flor De Vida"
PERFORMER "Chris Le Blanc Feat. Lisa De Andrade"
INDEX 01 00:00:00
FILE "(08) [Mo' Horizons] Foto Viva (Nicola Conte Remix).flac" WAVE
TRACK 08 AUDIO
TITLE "Foto Viva (Nicola Conte Remix)"
PERFORMER "Mo' Horizons"
INDEX 01 00:00:00
FILE "(09) [Parov Stelar] For All We Know.flac" WAVE
TRACK 09 AUDIO
TITLE "For All We Know"
PERFORMER "Parov Stelar"
INDEX 01 00:00:00
FILE "(10) [Konferenz] Konspiration V1..flac" WAVE
TRACK 10 AUDIO
TITLE "Konspiration V1."
PERFORMER Konferenz
INDEX 01 00:00:00
FILE "(11) [Jean F. Cochois] Electronique Love.flac" WAVE
TRACK 11 AUDIO
TITLE "Electronique Love"
PERFORMER "Jean F. Cochois"
INDEX 01 00:00:00
FILE "(12) [Kenneth Bager] Fragment One.flac" WAVE
TRACK 12 AUDIO
TITLE "Fragment One"
PERFORMER "Kenneth Bager"
INDEX 01 00:00:00
FILE "(13) [Ocean Deep Feat. Rhonda Bellamy] Stardust Into Men.flac" WAVE
TRACK 13 AUDIO
TITLE "Stardust Into Men"
PERFORMER "Ocean Deep Feat. Rhonda Bellamy"
INDEX 01 00:00:00

V.A. — Obsession Lounge 2 © 2007

Tracks.Flac + .cue + .log + Covers
Продолжительность: 02.16.22

Tracklist CD1:
01. Anti Atlas — Paa Havsens Bunn
02. La Taverne Du Lac — Ease My Mind
03. Stereo Mutants Feat. J.Jordan — I Wanna Go
04. Sven Van Hees — Indian Summer
05. Collective Sound Members — Drop It
06. OKA — Thats Hot
07. Hattler — Silent Surveyor
08. Mathieu & Florzinho — Changes
09. Pat Appleton — Whats Next
10. Eddie Silverton — High Flyers
11. Clelia Felix — Nightfall
12. JEN Meets Solar Moon — Asleep
13. Sol & Le Blanc — Bluenote Sounds

Log

Exact Audio Copy V0.99 prebeta 4 from 23. January 2008
EAC extraction logfile from 20. November 2008, 11:32
Various / Obsession Lounge 2 - CD1
Used drive : PIONEER DVD-RW DVR-112D Adapter: 3 ID: 0
Read mode : Secure
Utilize accurate stream : Yes
Defeat audio cache : Yes
Make use of C2 pointers : No
Read offset correction : 48
Overread into Lead-In and Lead-Out : No
Fill up missing offset samples with silence : Yes
Delete leading and trailing silent blocks : No
Null samples used in CRC calculations : Yes
Used interface : Installed external ASPI interface
Used output format : User Defined Encoder
Selected bitrate : 192 kBit/s
Quality : Low
Add ID3 tag : Yes
Command line compressor : C:\Program Files\E A C Audio\Flac\flac.exe
Additional command line options : -V -8 -T "artist=%a" -T "title=%t" -T "album=%g" -T "date=%y" -T "tracknumber=%n" -T "genre=%m" %s
TOC of the extracted CD
Track | Start | Length | Start sector | End sector
---------------------------------------------------------
1 | 0:00.00 | 4:12.33 | 0 | 18932
2 | 4:12.33 | 4:55.07 | 18933 | 41064
3 | 9:07.40 | 5:18.73 | 41065 | 64987
4 | 14:26.38 | 5:30.48 | 64988 | 89785
5 | 19:57.11 | 4:13.63 | 89786 | 108823
6 | 24:10.74 | 5:54.66 | 108824 | 135439
7 | 30:05.65 | 4:11.23 | 135440 | 154287
8 | 34:17.13 | 6:24.02 | 154288 | 183089
9 | 40:41.15 | 5:33.05 | 183090 | 208069
10 | 46:14.20 | 4:35.28 | 208070 | 228722
11 | 50:49.48 | 3:22.22 | 228723 | 243894
12 | 54:11.70 | 5:51.31 | 243895 | 270250
13 | 60:03.26 | 4:55.15 | 270251 | 292390
Range status and errors
Selected range
Filename G:\lossless-room.nnm.ru\Various - Obsession Lounge 2\Various - Obsession Lounge 2 - CD1.wav
Peak level 97.7 %
Range quality 100.0 %
Test CRC 6A0A6307
Copy CRC 6A0A6307
Copy OK
No errors occurred
AccurateRip summary
Track 1 accurately ripped (confidence 2) [FD762A6D]
Track 2 accurately ripped (confidence 2) [9C66DA54]
Track 3 accurately ripped (confidence 2) [1E30687F]
Track 4 accurately ripped (confidence 2) [3D29D091]
Track 5 accurately ripped (confidence 2) [8E1032C2]
Track 6 accurately ripped (confidence 2) [0FD4C738]
Track 7 accurately ripped (confidence 2) [BE913E05]
Track 8 accurately ripped (confidence 3) [A81A685E]
Track 9 accurately ripped (confidence 3) [09A51847]
Track 10 accurately ripped (confidence 3) [DE8258C8]
Track 11 accurately ripped (confidence 3) [8338E24C]
Track 12 accurately ripped (confidence 3) [02DD4CD2]
Track 13 accurately ripped (confidence 3) [3DBD0967]
All tracks accurately ripped
End of status report

CUE

;
;--[ Created by Medieval CUE Splitter! ]--
;
;
REM GENRE Lounge
REM DATE 2007
REM PLACE http://lossless-room.nnm.ru/
REM DISCID BC0F3A0D
REM COMMENT "ExactAudioCopy v0.99pb4"
TITLE "Obsession Lounge 2 - CD1"
PERFORMER Various
FILE "(01) [Anti Atlas] Paa Havsens Bunn.flac" WAVE
TRACK 01 AUDIO
TITLE "Paa Havsens Bunn"
PERFORMER "Anti Atlas"
INDEX 01 00:00:00
FILE "(02) [La Taverne Du Lac] Ease My Mind.flac" WAVE
TRACK 02 AUDIO
TITLE "Ease My Mind"
PERFORMER "La Taverne Du Lac"
INDEX 01 00:00:00
FILE "(03) [Stereo Mutants Feat. J.Jordan] I Wanna Go.flac" WAVE
TRACK 03 AUDIO
TITLE "I Wanna Go"
PERFORMER "Stereo Mutants Feat. J.Jordan"
INDEX 01 00:00:00
FILE "(04) [Sven Van Hees] Indian Summer.flac" WAVE
TRACK 04 AUDIO
TITLE "Indian Summer"
PERFORMER "Sven Van Hees"
INDEX 01 00:00:00
FILE "(05) [Collective Sound Members] Drop It.flac" WAVE
TRACK 05 AUDIO
TITLE "Drop It"
PERFORMER "Collective Sound Members"
INDEX 01 00:00:00
FILE "(06) [OKA] Thats Hot.flac" WAVE
TRACK 06 AUDIO
TITLE "Thats Hot"
PERFORMER OKA
INDEX 01 00:00:00
FILE "(07) [Hattler] Silent Surveyor.flac" WAVE
TRACK 07 AUDIO
TITLE "Silent Surveyor"
PERFORMER Hattler
INDEX 01 00:00:00
FILE "(08) [Mathieu & Florzinho] Changes.flac" WAVE
TRACK 08 AUDIO
TITLE Changes
PERFORMER "Mathieu & Florzinho"
INDEX 01 00:00:00
FILE "(09) [Pat Appleton] Whats Next.flac" WAVE
TRACK 09 AUDIO
TITLE "Whats Next"
PERFORMER "Pat Appleton"
INDEX 01 00:00:00
FILE "(10) [Eddie Silverton] High Flyers.flac" WAVE
TRACK 10 AUDIO
TITLE "High Flyers"
PERFORMER "Eddie Silverton"
INDEX 01 00:00:00
FILE "(11) [Clelia Felix] Nightfall.flac" WAVE
TRACK 11 AUDIO
TITLE Nightfall
PERFORMER "Clelia Felix"
INDEX 01 00:00:00
FILE "(12) [JEN Meets Solar Moon] Asleep.flac" WAVE
TRACK 12 AUDIO
TITLE Asleep
PERFORMER "JEN Meets Solar Moon"
INDEX 01 00:00:00
FILE "(13) [Sol & Le Blanc] Bluenote Sounds.flac" WAVE
TRACK 13 AUDIO
TITLE "Bluenote Sounds"
PERFORMER "Sol & Le Blanc"
INDEX 01 00:00:00
Tracklist CD2:
01. J.C.A. — Fly Away (J.C.A. Vs. Jondal RMX)
02. Merge Of Equals — Rainbowroom
03. Lemongrass Feat. Skadi — Habla Mi Corazon
04. Sweet Velvet Feat. D.Vilchez — La Plena Noche
05. Challe & Plack — Carmenita Loungin
06. Jeff Bennetts Lounge Experience — Aperitif
07. Riccardo Eberspacher — Some More
08. Jens Buchert — Remember
09. DJ Disse — Ramadan
10. Blank & Jones — Roots
11. Blank & Jones — Nothing Can Come Between Us
12. Chris Zippel Feat. Adel Tawil — Again
13. Momix & Low P. — Merry Christmas Mr Lawrence

Log CD

Exact Audio Copy V0.99 prebeta 4 from 23. January 2008
EAC extraction logfile from 20. November 2008, 12:11
Various / Obsession Lounge 2 - CD2
Used drive : PIONEER DVD-RW DVR-112D Adapter: 3 ID: 0
Read mode : Secure
Utilize accurate stream : Yes
Defeat audio cache : Yes
Make use of C2 pointers : No
Read offset correction : 48
Overread into Lead-In and Lead-Out : No
Fill up missing offset samples with silence : Yes
Delete leading and trailing silent blocks : No
Null samples used in CRC calculations : Yes
Used interface : Installed external ASPI interface
Used output format : User Defined Encoder
Selected bitrate : 192 kBit/s
Quality : Low
Add ID3 tag : Yes
Command line compressor : C:\Program Files\E A C Audio\Flac\flac.exe
Additional command line options : -V -8 -T "artist=%a" -T "title=%t" -T "album=%g" -T "date=%y" -T "tracknumber=%n" -T "genre=%m" %s
TOC of the extracted CD
Track | Start | Length | Start sector | End sector
---------------------------------------------------------
1 | 0:00.00 | 5:22.21 | 0 | 24170
2 | 5:22.21 | 4:45.12 | 24171 | 45557
3 | 10:07.33 | 4:10.08 | 45558 | 64315
4 | 14:17.41 | 6:13.13 | 64316 | 92303
5 | 20:30.54 | 8:29.27 | 92304 | 130505
6 | 29:00.06 | 7:37.09 | 130506 | 164789
7 | 36:37.15 | 4:30.49 | 164790 | 185088
8 | 41:07.64 | 5:06.49 | 185089 | 208087
9 | 46:14.38 | 6:34.68 | 208088 | 237705
10 | 52:49.31 | 3:08.06 | 237706 | 251811
11 | 55:57.37 | 3:44.17 | 251812 | 268628
12 | 59:41.54 | 5:03.43 | 268629 | 291396
13 | 64:45.22 | 6:37.57 | 291397 | 321228
Range status and errors
Selected range
Filename G:\lossless-room.nnm.ru\Various - Obsession Lounge 2\Various - Obsession Lounge 2 - CD2.wav
Peak level 97.7 %
Range quality 100.0 %
Test CRC CE4E794B
Copy CRC CE4E794B
Copy OK
No errors occurred
AccurateRip summary
Track 1 accurately ripped (confidence 3) [D126A8A3]
Track 2 accurately ripped (confidence 3) [7B9BBB9B]
Track 3 accurately ripped (confidence 3) [1F2EB627]
Track 4 accurately ripped (confidence 3) [EA0FE81C]
Track 5 accurately ripped (confidence 3) [93E04656]
Track 6 accurately ripped (confidence 3) [7D71BFE6]
Track 7 accurately ripped (confidence 3) [0FC5E2BB]
Track 8 accurately ripped (confidence 3) [EDD288BE]
Track 9 accurately ripped (confidence 3) [BC9B0E27]
Track 10 accurately ripped (confidence 3) [4CEBB065]
Track 11 accurately ripped (confidence 3) [DE10CEE2]
Track 12 accurately ripped (confidence 3) [34FF9040]
Track 13 accurately ripped (confidence 3) [4943B7FC]
All tracks accurately ripped
End of status report

CUE

;
;--[ Created by Medieval CUE Splitter! ]--
;
;-----------[ www.medieval.it ]-----------
;
REM GENRE Lounge
REM DATE 2007
REM PLACE http://lossless-room.nnm.ru/
REM DISCID D310BB0D
REM COMMENT "ExactAudioCopy v0.99pb4"
TITLE "Obsession Lounge 2 - CD2"
PERFORMER Various
FILE "(01) [J.C.A.] Fly Away (J.C.A. Vs. Jondal RMX).flac" WAVE
TRACK 01 AUDIO
TITLE "Fly Away (J.C.A. Vs. Jondal RMX)"
PERFORMER J.C.A.
INDEX 01 00:00:00
FILE "(02) [Merge Of Equals] Rainbowroom.flac" WAVE
TRACK 02 AUDIO
TITLE Rainbowroom
PERFORMER "Merge Of Equals"
INDEX 01 00:00:00
FILE "(03) [Lemongrass Feat. Skadi] Habla Mi Corazon.flac" WAVE
TRACK 03 AUDIO
TITLE "Habla Mi Corazon"
PERFORMER "Lemongrass Feat. Skadi"
INDEX 01 00:00:00
FILE "(04) [Sweet Velvet Feat. D.Vilchez] La Plena Noche.flac" WAVE
TRACK 04 AUDIO
TITLE "La Plena Noche"
PERFORMER "Sweet Velvet Feat. D.Vilchez"
INDEX 01 00:00:00
FILE "(05) [Challe & Plack] Carmenita Loungin.flac" WAVE
TRACK 05 AUDIO
TITLE "Carmenita Loungin"
PERFORMER "Challe & Plack"
INDEX 01 00:00:00
FILE "(06) [Jeff Bennetts Lounge Experience] Aperitif.flac" WAVE
TRACK 06 AUDIO
TITLE Aperitif
PERFORMER "Jeff Bennetts Lounge Experience"
INDEX 01 00:00:00
FILE "(07) [Riccardo Eberspacher] Some More.flac" WAVE
TRACK 07 AUDIO
TITLE "Some More"
PERFORMER "Riccardo Eberspacher"
INDEX 01 00:00:00
FILE "(08) [Jens Buchert] Remember.flac" WAVE
TRACK 08 AUDIO
TITLE Remember
PERFORMER "Jens Buchert"
INDEX 01 00:00:00
FILE "(09) [DJ Disse] Ramadan.flac" WAVE
TRACK 09 AUDIO
TITLE Ramadan
PERFORMER "DJ Disse"
INDEX 01 00:00:00
FILE "(10) [Blank & Jones] Roots.flac" WAVE
TRACK 10 AUDIO
TITLE Roots
PERFORMER "Blank & Jones"
INDEX 01 00:00:00
FILE "(11) [Blank & Jones] Nothing Can Come Between Us.flac" WAVE
TRACK 11 AUDIO
TITLE "Nothing Can Come Between Us"
PERFORMER "Blank & Jones"
INDEX 01 00:00:00
FILE "(12) [Chris Zippel Feat. Adel Tawil] Again.flac" WAVE
TRACK 12 AUDIO
TITLE Again
PERFORMER "Chris Zippel Feat. Adel Tawil"
INDEX 01 00:00:00
FILE "(13) [Momix & Low P.] Merry Christmas Mr Lawrence.flac" WAVE
TRACK 13 AUDIO
TITLE "Merry Christmas Mr Lawrence"
PERFORMER "Momix & Low P."
INDEX 01 00:00:00

V.A. — Obsession Lounge 3 © 2008

Tracks.Flac + .cue + .log + Covers
Продолжительность: 02.08.00

Tracklist CD1:
01. Bardo State — Kosovo (Bob Holroyd Vs Shisha Soundsystem Mix)
02. Symbols Of Sound — Sounds Of The Sunset
03. Canedrive — Horns At The Ready
04. IELO — Rhinaa
05. RLO — Dans La Musique
06. Merge Of Equals — Menina
07. Noel — Chalito
08. Clelia Felix — Wisdom (Vocal Mix)
09. DJ Elbe — Stilles Wasser
10. Eddie Silverton — My Balcony
11. Mystic Diversions — Float On
12. Guardner — Seeds

Log

Exact Audio Copy V0.99 prebeta 4 from 23. January 2008
EAC extraction logfile from 20. November 2008, 12:36
Various / Obsession Lounge 3 - CD1
Used drive : PIONEER DVD-RW DVR-112D Adapter: 3 ID: 0
Read mode : Secure
Utilize accurate stream : Yes
Defeat audio cache : Yes
Make use of C2 pointers : No
Read offset correction : 48
Overread into Lead-In and Lead-Out : No
Fill up missing offset samples with silence : Yes
Delete leading and trailing silent blocks : No
Null samples used in CRC calculations : Yes
Used interface : Installed external ASPI interface
Used output format : User Defined Encoder
Selected bitrate : 192 kBit/s
Quality : Low
Add ID3 tag : Yes
Command line compressor : C:\Program Files\E A C Audio\Flac\flac.exe
Additional command line options : -V -8 -T "artist=%a" -T "title=%t" -T "album=%g" -T "date=%y" -T "tracknumber=%n" -T "genre=%m" %s
TOC of the extracted CD
Track | Start | Length | Start sector | End sector
---------------------------------------------------------
1 | 0:00.00 | 4:59.12 | 0 | 22436
2 | 4:59.12 | 4:42.74 | 22437 | 43660
3 | 9:42.11 | 4:53.09 | 43661 | 65644
4 | 14:35.20 | 4:48.25 | 65645 | 87269
5 | 19:23.45 | 4:35.22 | 87270 | 107916
6 | 23:58.67 | 5:33.09 | 107917 | 132900
7 | 29:32.01 | 4:53.25 | 132901 | 154900
8 | 34:25.26 | 3:34.00 | 154901 | 170950
9 | 37:59.26 | 3:28.48 | 170951 | 186598
10 | 41:27.74 | 4:29.05 | 186599 | 206778
11 | 45:57.04 | 3:56.11 | 206779 | 224489
12 | 49:53.15 | 6:49.57 | 224490 | 255221
Range status and errors
Selected range
Filename G:\lossless-room.nnm.ru\Various - Obsession Lounge 3\Various - Obsession Lounge 3 - CD1.wav
Peak level 97.7 %
Range quality 100.0 %
Test CRC 359D3232
Copy CRC 359D3232
Copy OK
No errors occurred
AccurateRip summary
Track 1 not present in database
Track 2 not present in database
Track 3 not present in database
Track 4 not present in database
Track 5 not present in database
Track 6 not present in database
Track 7 not present in database
Track 8 not present in database
Track 9 not present in database
Track 10 not present in database
Track 11 not present in database
Track 12 not present in database
None of the tracks are present in the AccurateRip database
End of status report

CUE

;
;--[ Created by Medieval CUE Splitter! ]--
REM GENRE Lounge
REM DATE 2008
REM PLACE http://lossless-room.nnm.ru/
REM DISCID B90D4A0C
REM COMMENT "ExactAudioCopy v0.99pb4"
TITLE "Obsession Lounge 3 - CD1"
PERFORMER Various
FILE "(01) [Bardo State] Kosovo (Bob Holroyd Vs Shisha Soundsystem Mix).flac" WAVE
TRACK 01 AUDIO
TITLE "Kosovo (Bob Holroyd Vs Shisha Soundsystem Mix)"
PERFORMER "Bardo State"
INDEX 01 00:00:00
FILE "(02) [Symbols Of Sound] Sounds Of The Sunset.flac" WAVE
TRACK 02 AUDIO
TITLE "Sounds Of The Sunset"
PERFORMER "Symbols Of Sound"
INDEX 01 00:00:00
FILE "(03) [Canedrive] Horns At The Ready.flac" WAVE
TRACK 03 AUDIO
TITLE "Horns At The Ready"
PERFORMER Canedrive
INDEX 01 00:00:00
FILE "(04) [IELO] Rhinaa.flac" WAVE
TRACK 04 AUDIO
TITLE Rhinaa
PERFORMER IELO
INDEX 01 00:00:00
FILE "(05) [RLO] Dans La Musique.flac" WAVE
TRACK 05 AUDIO
TITLE "Dans La Musique"
PERFORMER RLO
INDEX 01 00:00:00
FILE "(06) [Merge Of Equals] Menina.flac" WAVE
TRACK 06 AUDIO
TITLE Menina
PERFORMER "Merge Of Equals"
INDEX 01 00:00:00
FILE "(07) [Noel] Chalito.flac" WAVE
TRACK 07 AUDIO
TITLE Chalito
PERFORMER Noel
INDEX 01 00:00:00
FILE "(08) [Clelia Felix] Wisdom (Vocal Mix).flac" WAVE
TRACK 08 AUDIO
TITLE "Wisdom (Vocal Mix)"
PERFORMER "Clelia Felix"
INDEX 01 00:00:00
FILE "(09) [DJ Elbe] Stilles Wasser.flac" WAVE
TRACK 09 AUDIO
TITLE "Stilles Wasser"
PERFORMER "DJ Elbe"
INDEX 01 00:00:00
FILE "(10) [Eddie Silverton] My Balcony.flac" WAVE
TRACK 10 AUDIO
TITLE "My Balcony"
PERFORMER "Eddie Silverton"
INDEX 01 00:00:00
FILE "(11) [Mystic Diversions] Float On.flac" WAVE
TRACK 11 AUDIO
TITLE "Float On"
PERFORMER "Mystic Diversions"
INDEX 01 00:00:00
FILE "(12) [Guardner] Seeds.flac" WAVE
TRACK 12 AUDIO
TITLE Seeds
PERFORMER Guardner
INDEX 01 00:00:00
Tracklist CD2:
01. Mathieu & Florzinho — Maha-Amba
02. Berkstroem — EN
03. Flashbaxx — Voodoo Therapy
04. Collective Sound Members — Essence
05. Roberto Sol — Remember That Day
06. Gelka — Rasta Baby
07. Atrium — How To Pray
08. Monte La Rue — In The Mood
09. 3-11 Porter — Praying
10. JEN — Asleep
11. Senseque — Seaview
12. Casa Del Sol — Sa Caleta
13. Blank & Jones — Desire (Ambient Mix Edit)

Log

Exact Audio Copy V0.99 prebeta 4 from 23. January 2008
EAC extraction logfile from 20. November 2008, 13:19
Various / Obsession Lounge 3 - CD2
Used drive : PIONEER DVD-RW DVR-112D Adapter: 3 ID: 0
Read mode : Secure
Utilize accurate stream : Yes
Defeat audio cache : Yes
Make use of C2 pointers : No
Read offset correction : 48
Overread into Lead-In and Lead-Out : No
Fill up missing offset samples with silence : Yes
Delete leading and trailing silent blocks : No
Null samples used in CRC calculations : Yes
Used interface : Installed external ASPI interface
Used output format : User Defined Encoder
Selected bitrate : 192 kBit/s
Quality : Low
Add ID3 tag : Yes
Command line compressor : C:\Program Files\E A C Audio\Flac\flac.exe
Additional command line options : -V -8 -T "artist=%a" -T "title=%t" -T "album=%g" -T "date=%y" -T "tracknumber=%n" -T "genre=%m" %s
TOC of the extracted CD
Track | Start | Length | Start sector | End sector
---------------------------------------------------------
1 | 0:00.00 | 5:39.65 | 0 | 25489
2 | 5:39.65 | 4:46.29 | 25490 | 46968
3 | 10:26.19 | 7:28.34 | 46969 | 80602
4 | 17:54.53 | 5:14.21 | 80603 | 104173
5 | 23:08.74 | 4:35.61 | 104174 | 124859
6 | 27:44.60 | 4:52.57 | 124860 | 146816
7 | 32:37.42 | 6:17.41 | 146817 | 175132
8 | 38:55.08 | 4:01.17 | 175133 | 193224
9 | 42:56.25 | 4:05.36 | 193225 | 211635
10 | 47:01.61 | 6:00.47 | 211636 | 238682
11 | 53:02.33 | 5:05.63 | 238683 | 261620
12 | 58:08.21 | 5:11.05 | 261621 | 284950
13 | 63:19.26 | 7:57.21 | 284951 | 320746
Range status and errors
Selected range
Filename G:\lossless-room.nnm.ru\Various - Obsession Lounge 3\Various - Obsession Lounge 3 - CD2.wav
Peak level 97.7 %
Range quality 99.9 %
Test CRC 2F640208
Copy CRC 2F640208
Copy OK
No errors occurred
AccurateRip summary
Track 1 not present in database
Track 2 not present in database
Track 3 not present in database
Track 4 not present in database
Track 5 not present in database
Track 6 not present in database
Track 7 not present in database
Track 8 not present in database
Track 9 not present in database
Track 10 not present in database
Track 11 not present in database
Track 12 not present in database
Track 13 not present in database
None of the tracks are present in the AccurateRip database
End of status report

CUE

;
;--[ Created by Medieval CUE Splitter! ]--
;
;-----------[ www.medieval.it ]-----------
;
REM GENRE Lounge
REM DATE 2008
REM PLACE http://lossless-room.nnm.ru/
REM DISCID C010B40D
REM COMMENT "ExactAudioCopy v0.99pb4"
TITLE "Obsession Lounge 3 - CD2"
PERFORMER Various
FILE "(01) [Mathieu & Florzinho] Maha-Amba.flac" WAVE
TRACK 01 AUDIO
TITLE Maha-Amba
PERFORMER "Mathieu & Florzinho"
INDEX 01 00:00:00
FILE "(02) [Berkstroem] EN.flac" WAVE
TRACK 02 AUDIO
TITLE EN
PERFORMER Berkstroem
INDEX 01 00:00:00
FILE "(03) [Flashbaxx] Voodoo Therapy.flac" WAVE
TRACK 03 AUDIO
TITLE "Voodoo Therapy"
PERFORMER Flashbaxx
INDEX 01 00:00:00
FILE "(04) [Collective Sound Members] Essence.flac" WAVE
TRACK 04 AUDIO
TITLE Essence
PERFORMER "Collective Sound Members"
INDEX 01 00:00:00
FILE "(05) [Roberto Sol] Remember That Day.flac" WAVE
TRACK 05 AUDIO
TITLE "Remember That Day"
PERFORMER "Roberto Sol"
INDEX 01 00:00:00
FILE "(06) [Gelka] Rasta Baby.flac" WAVE
TRACK 06 AUDIO
TITLE "Rasta Baby"
PERFORMER Gelka
INDEX 01 00:00:00
FILE "(07) [Atrium] How To Pray.flac" WAVE
TRACK 07 AUDIO
TITLE "How To Pray"
PERFORMER Atrium
INDEX 01 00:00:00
FILE "(08) [Monte La Rue] In The Mood.flac" WAVE
TRACK 08 AUDIO
TITLE "In The Mood"
PERFORMER "Monte La Rue"
INDEX 01 00:00:00
FILE "(09) [3-11 Porter] Praying.flac" WAVE
TRACK 09 AUDIO
TITLE Praying
PERFORMER "3-11 Porter"
INDEX 01 00:00:00
FILE "(10) [JEN] Asleep.flac" WAVE
TRACK 10 AUDIO
TITLE Asleep
PERFORMER JEN
INDEX 01 00:00:00
FILE "(11) [Senseque] Seaview.flac" WAVE
TRACK 11 AUDIO
TITLE Seaview
PERFORMER Senseque
INDEX 01 00:00:00
FILE "(12) [Casa Del Sol] Sa Caleta.flac" WAVE
TRACK 12 AUDIO
TITLE "Sa Caleta"
PERFORMER "Casa Del Sol"
INDEX 01 00:00:00
FILE "(13) [Blank & Jones] Desire (Ambient Mix Edit).flac" WAVE
TRACK 13 AUDIO
TITLE "Desire (Ambient Mix Edit)"
PERFORMER "Blank & Jones"
INDEX 01 00:00:00

Доп. информация

Еще она, не менее интересная Жондаловская серия, выпущенная на немецком лейбле Сlubstar. Мне всегда нравились его работы, как качеством сведения, так и подборкой треков по тематике. Эта серия не исключение. Более шести часов релаксации на трех двойных дисках — это не просто коллекция, но и хороший подарок.

_________________
Other forum [Profile] [PM]
Display posts from previous:    
Reply to topic

The time now is: Today 14:38

All times are GMT + 3 Hours



You cannot post new topics in this forum
You cannot reply to topics in this forum
You cannot edit your posts in this forum
You cannot delete your posts in this forum
You cannot vote in polls in this forum
You cannot attach files in this forum
You cannot download files in this forum