Today is a free download without charge Download

Как щенок учился плавать (Владимир Данилевич) [1984, Кукольный мультфильм, DVDRip]

Reply to topic
 
Author
Message

Omen ®

Longevity: 7 years 11 months

Posts: 181087

Торрент-статистика

Post 02-Nov-2013 21:42

[Quote]

Как щенок учился плавать
Страна: CCCР
Жанр: Кукольный мультфильм
Продолжительность: 00:06:56
Год выпуска: 1984
Русские субтитры: нет
Режиссёр: Владимир Данилевич
Роли озвучивали: О.Громова,М.Виноградова,Е.Весник,Г.Вицин
Описание: Мультипликационный фильм о «маленьком глупом щенке, который не умеет плавать и не решается войти в воду. Щука и рак учат его плавать при помощи плавников и хвоста, лебедь — с помощью перепончатых лап. Когда же щенок, наконец, поплыл, то это был его собственный индивидуальный стиль по-собачьи»
Доп. информация:
«Союзмультфильм»
Сценарий: Э.Шим
Художник-постановщик:А.Курицын
Оператор:В.Сидоров
Директор:И.Мазепа
Композитор:Е.Ботяров
Качество: DVDRip
Формат: AVI
Видео: 704x528 (1.33:1), 25 fps, XviD MPEG-4 ~2298 kbps avg, 0.25 bit/pixel
Аудио: 48 kHz, AC3 Dolby Digital, 2/0 (L,R) ch, ~192.00 kbps avg
Субтитры: нет

Подробные технические данные

Format : AVIFormat/Info : Audio Video InterleaveFile size : 124 MiBDuration : 6mn 56sOverall bit rate : 2 500 KbpsWriting application : VirtualDubModRus 1.5.10.2 (build 2542/release)Copyright : Rutracker.orgComment : DVDRip by dvdss
VideoID : 0Format : MPEG-4 VisualFormat profile : Advanced [email protected] settings, BVOP : 2Format settings, QPel : NoFormat settings, GMC : No warppointsFormat settings, Matrix : CustomCodec ID : XVIDCodec ID/Hint : XviDDuration : 6mn 56sBit rate : 2 298 KbpsWidth : 704 pixelsHeight : 528 pixelsDisplay aspect ratio : 5:4Original display aspect ratio : 4:3Frame rate : 25.000 fpsColor space : YUVChroma subsampling : 4:2:0Bit depth : 8 bitsScan type : ProgressiveCompression mode : LossyBits/(Pixel*Frame) : 0.247Stream size : 114 MiB (92%)Writing library : XviD 65
AudioID : 1Format : AC-3Format/Info : Audio Coding 3Mode extension : CM (complete main)Format settings, Endianness : BigCodec ID : 2000Duration : 6mn 56sBit rate mode : ConstantBit rate : 192 KbpsChannel(s) : 2 channelsChannel positions : Front: L RSampling rate : 48.0 KHzBit depth : 16 bitsCompression mode : LossyStream size : 9.54 MiB (8%)Alignment : Aligned on interleavesInterleave, duration : 40 ms (1.00 video frame)Interleave, preload duration : 512 ms

Скриншоты

Other forum [Profile] [PM]
Display posts from previous:    
Reply to topic

The time now is: Today 04:06

All times are GMT + 3 Hours



You cannot post new topics in this forum
You cannot reply to topics in this forum
You cannot edit your posts in this forum
You cannot delete your posts in this forum
You cannot vote in polls in this forum
You cannot attach files in this forum
You cannot download files in this forum