Today is a free download without charge Download

47 ронинов 3Д / 47 Ronin 3D (Карл Ринш / Carl Rinsch) [2013, фэнтези, боевик, приключения, DCPrip] Half OverUnder / Вертикальная анаморфная стереопара. трейлер

Reply to topic
 
Author
Message

Omen ®

Longevity: 8 years 8 months

Posts: 181087

Торрент-статистика

Post 02-Nov-2013 00:42

[Quote]

47 ронинов / 47 Ronin«This Christmas, seize eternity»- Тип раздаваемого материала: трейлер
Год выпуска фильма: 2013
Страна: США
Жанр: фэнтези, боевик, приключения
Продолжительность: 00:01:11
Перевод: Полное дублированние
Русские субтитры: нет
Режиссер: Карл Ринш / Carl Rinsch
В ролях: Ринко Кикути, Киану Ривз, Хироюки Санада, Кэри-Хироюки Тагава, Таданобу Асано, Рик Жене, Йорик ван Вагенинген, Того Игава, Харука Абе, Ко Шибасаки и др.-Описание: Таинственный странник, преданный всеми, проданный в рабство, избранный судьбой вершить месть, станет одним из 47 воинов, бросивших вызов смерти. Явившись из другого мира, он восстанет против темных сил, чтобы защитить свою запретную любовь.

Знаете ли вы, что...

  • По словам художника по костюмам Пенни Роуз, у всех были костюмы, подогнанные в соответствии с фоном: «Основываясь на культуре, форма одежда должна была быть одной — кимоно, но мы совершили своего рода «модный» переворот в этом направлении и добавили различных цветов».
  • Это уже седьмая кинематографическая адаптация японской сказки «47 ронинов». Первые шесть были: «Сорок семь верных вассалов эпохи Гэнроку» (1941), «47 преданных ронинов» (1958), «47 ронинов» (1962), «Падение замка Ако» (1978), «47 ронинов» (1994) и «Последний ронин» (2010). Однако, это первая голливудская адаптация.
  • Это режиссерский дебют Карла Ринша.
  • Стрелы для фильма были сделаны известным европейским мастером Майклом Рипом (Michael Reape). Небольшое количество стрел было выполнено в «музейном» качестве для съемки крупным планом.
  • Вместе с Киану Ривзом роли были отданы пяти японским актерам (Хироюки Санада, Таданобу Асано, Ринко Кикути, Ко Шибасаки и Джин Аканиши), чтобы сделать историю более достоверной, вместо того, чтобы выбрать актеров, узнаваемых в США.
  • По словам Киану Ривза, специально ради актеров второго плана съемки сначала проходили на японском и уже затем на английском языке.
-Статус производства: Производство завершено
Премьера (РФ): 1 января 2014, «UPI»-Качество: DCPrip
Формат видео: MKV
Формат 3D: Half OverUnder / Вертикальная анаморфная стереопара
Порядок ракурсов: левый ракурс первый
Видео кодек: H264
Аудио кодек: AC3
Видео: H264, 1920x1080, 16:9, 24.000 fps, 35.7 Mbps
Аудио: Rus, AC-3, 48.0 KHz, 640 Kbps, 6 channels, Front: L C R, Side: L R, LFE

MediaInfo

General
Unique ID : 252862075121568209374073563378345616866 (0xBE3B76D79F987DC5AB1D4195A77CA5E2)
Complete name : E:\[DCPrip] Trailers\47-RONIN_B_S_RU_0827_3D_01.mkv
Format : Matroska
Format version : Version 4 / Version 2
File size : 301 MiB
Duration : 1mn 10s
Overall bit rate : 35.7 Mbps
Encoded date : UTC 2013-10-29 23:46:46
Writing application : mkvmerge v6.3.0 ('You can't stop me!') built on Jun 28 2013 20:09:41
Writing library : libebml v1.3.0 + libmatroska v1.4.0
Video
ID : 1
Format : AVC
Format/Info : Advanced Video Codec
Format profile : [email protected]
Format settings, CABAC : Yes
Format settings, ReFrames : 4 frames
Codec ID : V_MPEG4/ISO/AVC
Duration : 1mn 10s
Bit rate : 35.0 Mbps
Width : 1 920 pixels
Height : 1 080 pixels
Display aspect ratio : 16:9
Frame rate mode : Constant
Frame rate : 24.000 fps
Color space : YUV
Chroma subsampling : 4:2:0
Bit depth : 8 bits
Scan type : Progressive
Bits/(Pixel*Frame) : 0.703
Stream size : 290 MiB (96%)
Title : 47-RONIN_B_S_RU_0827_3D_01
Writing library : x264 core 120
Encoding settings : cabac=1 / ref=3 / deblock=1:0:0 / analyse=0x3:0x113 / me=hex / subme=7 / psy=1 / psy_rd=1.00:0.00 / mixed_ref=1 / me_range=16 / chroma_me=1 / trellis=1 / 8x8dct=1 / cqm=0 / deadzone=21,11 / fast_pskip=1 / chroma_qp_offset=-2 / threads=12 / sliced_threads=0 / nr=0 / decimate=1 / interlaced=0 / bluray_compat=0 / constrained_intra=0 / bframes=3 / b_pyramid=2 / b_adapt=2 / b_bias=0 / direct=1 / weightb=1 / open_gop=0 / weightp=2 / keyint=240 / keyint_min=24 / scenecut=40 / intra_refresh=0 / rc_lookahead=50 / rc=2pass / mbtree=1 / bitrate=35000 / ratetol=1.0 / qcomp=0.60 / qpmin=3 / qpmax=69 / qpstep=4 / cplxblur=20.0 / qblur=0.5 / ip_ratio=1.40 / aq=1:1.00
Language : Russian
Default : Yes
Forced : No
Color primaries : BT.709
Transfer characteristics : BT.709
Matrix coefficients : BT.709
Audio
ID : 2
Format : AC-3
Format/Info : Audio Coding 3
Mode extension : CM (complete main)
Format settings, Endianness : Big
Codec ID : A_AC3
Duration : 1mn 10s
Bit rate mode : Constant
Bit rate : 640 Kbps
Channel count : 6 channels
Channel positions : Front: L C R, Side: L R, LFE
Sampling rate : 48.0 KHz
Bit depth : 16 bits
Compression mode : Lossy
Stream size : 5.40 MiB (2%)
Title : AC-3 5.1
Language : Russian
Default : Yes
Forced : No

Скриншоты

Other forum [Profile] [PM]
Display posts from previous:    
Reply to topic

The time now is: Today 00:54

All times are GMT + 3 Hours



You cannot post new topics in this forum
You cannot reply to topics in this forum
You cannot edit your posts in this forum
You cannot delete your posts in this forum
You cannot vote in polls in this forum
You cannot attach files in this forum
You cannot download files in this forum