Today is a free download without charge Download

Выкрутасы (Гарри Бардин) [1987 г., Мультфильм, для взрослых, драма, DVDRip]

Reply to topic
 
Author
Message

Omen ®

Longevity: 7 years 11 months

Posts: 181087

Торрент-статистика

Post 28-Oct-2013 22:04

[Quote]

ВыкрутасыСтрана: СССР
Жанр: Мультфильм, для взрослых, драма
Продолжительность: 00:09:47
Год выпуска: 1987
Выпущено: «Союзмультфильм»
Режиссёр: Гарри Бардин
Русские субтитры: нетОписание:История проволочного человека, который защиту себя самого от окружающих довёл до полнейшего абсурда...Награды• 1988 год — Почётный Диплом МКФ короткометражных Фильмов в Кракове (Польша);
• 1988 год — Приз Жюри МФ в Шанхае (Китай);
• 1989 год — ассоциации кинокритиков на МКФ в Лос-Анжелесе (США);
• 1988 год — "Золотая Пальмовая Ветвь за короткометражный фильм" МКФ в Каннах (Франция).

Интересные факты

  • Идея «Выкрутас» родилась у Гарри Бардина после съёмок «Брака». Для того, чтобы удержать верёвки, нужен был каркас из проволоки. После съёмок у него осталась целая катушка специальной немецкой алюминиевой проволоки, которая и использовалась впоследствии при съёмках нового фильма.

Режиссёр и команда

Режиссёр Гарри Бардин
сценарист Гарри Бардин
художник-постановщик Ирина Ленникова
аниматоры: Ирина Собинова-Кассиль, Лидия Маятникова
операторы: Владимир Сидоров, Игорь Скидан-Босин
звукооператор Владимир Кутузов
редактор Татьяна Папорова
монтажёр Г. Филатова
Музыкальное оформление: А. Клевицкий
Роли озвучивал: Гарри Бардин.
Качество: DVDRip
Формат: AVI
Видео: 720x544 (1.32:1), 25 fps, XviD build 64 ~2397 kbps avg, 0.24 bit/pixel
Аудио: 48 kHz, AC3 Dolby Digital, 2/0 (L,R) ch, ~192 kbps
Субтитры: отсутствуют

Подробные технические данные

ОбщееПолное имя : D:\Мульты\Vykrutasy_(Garry_Bardin).aviФормат : AVIФормат/Информация : Audio Video InterleaveРазмер файла : 182 МбайтПродолжительность : 9 м. 47 с.Общий поток : 2599 Кбит/секПрограмма кодирования : VirtualDubMod 1.5.10.2 (build 2540/release)Библиотека кодирования : VirtualDubMod build 2540/release
ВидеоИдентификатор : 0Формат : MPEG-4 VisualПрофиль формата : Advanced [email protected]Параметр BVOP формата : 2Параметр QPel формата : НетПараметр GMC формата : Без точки переходаПараметр матрицы формата : ВыборочнаяИдентификатор кодека : XVIDИдентификатор кодека/Подсказка : XviDПродолжительность : 9 м. 47 с.Битрейт : 2397 Кбит/секШирина : 720 пикселейВысота : 544 пикселяСоотношение сторон : 4:3Частота кадров : 25,000 кадров/секЦветовое пространство : YUVСубдискретизация насыщенности : 4:2:0Битовая глубина : 8 битТип развёртки : ПрогрессивнаяМетод сжатия : С потерямиБит/(Пиксели*Кадры) : 0.245Размер потока : 168 Мбайт (92%)Библиотека кодирования : XviD 64
АудиоИдентификатор : 1Формат : AC-3Формат/Информация : Audio Coding 3Расширение режима : CM (complete main)Идентификатор кодека : 2000Продолжительность : 9 м. 47 с.Вид битрейта : ПостоянныйБитрейт : 192 Кбит/секКаналы : 2 каналаРасположение каналов : Front: L RЧастота : 48,0 КГцБитовая глубина : 16 битМетод сжатия : С потерямиРазмер потока : 13,4 Мбайт (7%)Выравнивание : Разделение по промежуткамПродолжительность промежутка : 40 мс. (1,00 видеокадр)Время предзагрузки промежутка : 500 мс.
Subtitles: Not Present

Скриншоты

-
Other forum [Profile] [PM]
Display posts from previous:    
Reply to topic

The time now is: Today 11:37

All times are GMT + 3 Hours



You cannot post new topics in this forum
You cannot reply to topics in this forum
You cannot edit your posts in this forum
You cannot delete your posts in this forum
You cannot vote in polls in this forum
You cannot attach files in this forum
You cannot download files in this forum