Today is a free download without charge Download

Прежде мы были птицами (Гарри Бардин) [1982 г., Мультфильм, притча, DVDRip]

Reply to topic
 
Author
Message

Omen ®

Longevity: 7 years 11 months

Posts: 181087

Торрент-статистика

Post 28-Oct-2013 17:44

[Quote]

Прежде мы были птицамиСтрана: СССР
Жанр: Мультфильм, притча
Продолжительность: 00:15:48
Год выпуска: 1982
Выпущено: «Союзмультфильм»
Режиссёр: Гарри Бардин
Русские субтитры: нетОписание:Музыкальный фильм по мотивам старинной цыганской притчи, в которой рассказано о том, как тяга к золоту, богатству лишила цыганских птиц их крыльев и превратила в кочующих людей.
Использован фрагмент "Цыганских напевов" Сарасате.
Участвует ансамбль "Джанг".

Режиссёр и команда

Режиссёр Гарри Бардин
сценаристы Юрий Энтин, Гарри Бардин
художник-постановщик Елена Фёдорова
художники: Елена Караваева, В. Харитонова, Зинаида Зарб, Николай Климов
аниматоры: Николай Фёдоров, Анатолий Абаренов, Виктор Лихачёв, Татьяна Фадеева, Антонина Алёшина, Александр Панов, Марина Восканьянц, Владимир Вышегородцев, Эльвира Маслова
операторы Сергей Хлебников, Михаил Друян
директор Нинель Липницкая
Музыка и тексты песен Николай Жемчужный
звукорежиссёр Борис Фильчиков
редактор Татьяна Папорова
роли озвучивали: Борис Ташкентский, Розалия Эрденко, Николай Эрденко, Екатерина Жемчужная.
монтажёр Маргарита Михеева
Качество: DVDRip
Формат: AVI
Видео: 704x528 (1.33:1), 25 fps, XviD build 64 ~2390 kbps avg, 0.26 bit/pixel
Аудио: 48 kHz, AC3 Dolby Digital, 2/0 (L,R) ch, ~192 kbps
Субтитры: отсутствуют

Подробные технические данные

ОбщееПолное имя : D:\Мульты\Prezhde_mi_byli_ptitzami.aviФормат : AVIФормат/Информация : Audio Video InterleaveРазмер файла : 293 МбайтПродолжительность : 15 м.Общий поток : 2593 Кбит/секПрограмма кодирования : VirtualDubMod 1.5.10.2 (build 2540/release)Библиотека кодирования : VirtualDubMod build 2540/release
ВидеоИдентификатор : 0Формат : MPEG-4 VisualПрофиль формата : Advanced [email protected]Параметр BVOP формата : 2Параметр QPel формата : НетПараметр GMC формата : Без точки переходаПараметр матрицы формата : ВыборочнаяИдентификатор кодека : XVIDИдентификатор кодека/Подсказка : XviDПродолжительность : 15 м.Битрейт : 2391 Кбит/секШирина : 704 пикселяВысота : 528 пикселейСоотношение сторон : 4:3Частота кадров : 25,000 кадров/секЦветовое пространство : YUVСубдискретизация насыщенности : 4:2:0Битовая глубина : 8 битТип развёртки : ПрогрессивнаяМетод сжатия : С потерямиБит/(Пиксели*Кадры) : 0.257Размер потока : 270 Мбайт (92%)Библиотека кодирования : XviD 64
АудиоИдентификатор : 1Формат : AC-3Формат/Информация : Audio Coding 3Расширение режима : CM (complete main)Идентификатор кодека : 2000Продолжительность : 15 м.Вид битрейта : ПостоянныйБитрейт : 192 Кбит/секКаналы : 2 каналаРасположение каналов : Front: L RЧастота : 48,0 КГцБитовая глубина : 16 битМетод сжатия : С потерямиРазмер потока : 21,7 Мбайт (7%)Выравнивание : Разделение по промежуткамПродолжительность промежутка : 40 мс. (1,00 видеокадр)Время предзагрузки промежутка : 500 мс.
Subtitles: Not Present

Скриншоты

-
Other forum [Profile] [PM]
Display posts from previous:    
Reply to topic

The time now is: Today 06:41

All times are GMT + 3 Hours



You cannot post new topics in this forum
You cannot reply to topics in this forum
You cannot edit your posts in this forum
You cannot delete your posts in this forum
You cannot vote in polls in this forum
You cannot attach files in this forum
You cannot download files in this forum