Today is a free download without charge Download

Красное солнце / Red Sun / Soleil rouge (Теренс Янг / Terence Young)[1971.,Боевик, Вестерн, Триллер] DVDRip

Reply to topic
 
Author
Message

sashau ®

Gender:

Longevity: 9 years

Posts: 3497

Торрент-статистика

Post 27-Oct-2013 09:51

[Quote]

Красное солнце / Red Sun / Soleil rouge - Русское название: Красное солнце
Оригинальное название: Red Sun / Soleil rouge
Год выпуска: 1971
Жанр: Боевик, Вестерн, Триллер
Описание фильма:
70-е годы прошлого века. Ограблен поезд и вместе с золотом похищен самурайский меч, предназначенный в подарок президенту. Самурай (Мифуне) отправляется на поиски меча вместе с одним из грабителей (Бронсон). У Бронсона свои причины искать обидчика (Делон). Тот зажал его долю награбленного, а самого Бронсона чуть не убил. Вместе они переживают множество приключений. Очень интересно и забавно наблюдать противопоставление восточной культуры Дикому Западу. Один из моих самых любимых вестернов. (Иванов М.)
Режиссер: Теренс Янг / Terence Young
Актеры: Ален Делон / Alain Delon, Чарлз Бронсон / Charles Bronson, Тосиро Мифунэ / Toshiro Mifune, Урсула Андресс / Ursula Andress
Продолжительность: 01:49:27
Перевод: Авторский (одноголосый, закадровый) Гаврилов, Володарский, Михалев
Оригинальный аудиопоток: английский
Субтитры: отсутствуют

Источник/Качество: DVDRip
Контейнер: AVI
Видео кодек: XviD
Аудио кодек: AC3
Видео: 704x384 (1.83:1), 25 fps, XviD MPEG-4 ~2030 kbps avg, 0.30 bit/pixel
Аудио#1: 48 kHz, AC3 Dolby Digital, 2/0 (L,R) ch, ~192 kbps - Гаврилов
Аудио#2: 48 kHz, AC3 Dolby Digital, 2/0 (L,R) ch, ~192 kbps - Володарский
Аудио#3: 48 kHz, AC3 Dolby Digital, 2/0 (L,R) ch, ~192 kbps - Михалев
Аудио#4: 48 kHz, AC3 Dolby Digital, 2/0 (L,R) ch, ~192 kbps - Английская

Доп. информация

Cпасибо shitman82 за звуковые дороги с переводами Андрея Гаврилова и Алексея Михалева и multmir за звуковую дорогу с переводом Леонида Володарского. А так же [email protected] за перетяжку Гаврилова.

Media Info

Общее
Полное имя : D:\Мои документы\Кинофильмы\Кино\Мои раздачи (незаболваненные)\Red Sun (Gavrilov, Volodarskiy, Mihalev, Eng) (DVDRip) by A.P..avi
Формат : AVI
Формат/Информация : Audio Video Interleave
Профиль формата : OpenDML
Размер файла : 2,14 Гбайт
Продолжительность : 1 ч. 49 м.
Общий поток : 2805 Кбит/сек
Программа кодирования : VirtualDubMod 1.5.10.3 | www.virtualdub-fr.org || (build 2550/release)
Библиотека кодирования : VirtualDubMod build 2550/release
Видео
Идентификатор : 0
Формат : MPEG-4 Visual
Профиль формата : Advanced [email protected]
Параметр BVOP формата : 2
Параметр QPel формата : Нет
Параметр GMC формата : Без точки перехода
Параметр матрицы формата : Выборочная
Идентификатор кодека : XVID
Идентификатор кодека/Подсказка : XviD
Продолжительность : 1 ч. 49 м.
Битрейт : 2007 Кбит/сек
Ширина : 704 пикселя
Высота : 384 пикселя
Соотношение сторон : 1,85:1
Частота кадров : 25,000 кадров/сек
Цветовое пространство : YUV
Субдискретизация насыщенности : 4:2:0
Битовая глубина : 8 бит
Тип развёртки : Прогрессивная
Метод сжатия : С потерями
Бит/(Пиксели*Кадры) : 0.297
Размер потока : 1,53 Гбайт (72%)
Библиотека кодирования : XviD 65
Аудио #1
Идентификатор : 1
Формат : AC-3
Формат/Информация : Audio Coding 3
Расширение режима : CM (complete main)
Параметр Endianness формата : Big
Идентификатор кодека : 2000
Продолжительность : 1 ч. 49 м.
Вид битрейта : Постоянный
Битрейт : 192 Кбит/сек
Каналы : 2 канала
Расположение каналов : Front: L R
Частота : 48,0 КГц
Битовая глубина : 16 бит
Метод сжатия : С потерями
Задержка видео : 4 мс.
Размер потока : 150 Мбайт (7%)
Выравнивание : Разделение по промежуткам
Продолжительность промежутка : 40 мс. (1,00 видеокадр)
Время предзагрузки промежутка : 500 мс.
Аудио #2
Идентификатор : 2
Формат : AC-3
Формат/Информация : Audio Coding 3
Расширение режима : CM (complete main)
Параметр Endianness формата : Big
Идентификатор кодека : 2000
Продолжительность : 1 ч. 49 м.
Вид битрейта : Постоянный
Битрейт : 192 Кбит/сек
Каналы : 2 канала
Расположение каналов : Front: L R
Частота : 48,0 КГц
Битовая глубина : 16 бит
Метод сжатия : С потерями
Задержка видео : 6 мс.
Размер потока : 150 Мбайт (7%)
Выравнивание : Разделение по промежуткам
Продолжительность промежутка : 40 мс. (1,00 видеокадр)
Время предзагрузки промежутка : 500 мс.
Аудио #3
Идентификатор : 3
Формат : AC-3
Формат/Информация : Audio Coding 3
Расширение режима : CM (complete main)
Параметр Endianness формата : Big
Идентификатор кодека : 2000
Продолжительность : 1 ч. 49 м.
Вид битрейта : Постоянный
Битрейт : 192 Кбит/сек
Каналы : 2 канала
Расположение каналов : Front: L R
Частота : 48,0 КГц
Битовая глубина : 16 бит
Метод сжатия : С потерями
Размер потока : 150 Мбайт (7%)
Выравнивание : Разделение по промежуткам
Продолжительность промежутка : 40 мс. (1,00 видеокадр)
Время предзагрузки промежутка : 500 мс.
Аудио #4
Идентификатор : 4
Формат : AC-3
Формат/Информация : Audio Coding 3
Расширение режима : CM (complete main)
Параметр Endianness формата : Big
Идентификатор кодека : 2000
Продолжительность : 1 ч. 49 м.
Вид битрейта : Постоянный
Битрейт : 192 Кбит/сек
Каналы : 2 канала
Расположение каналов : Front: L R
Частота : 48,0 КГц
Битовая глубина : 16 бит
Метод сжатия : С потерями
Размер потока : 150 Мбайт (7%)
Выравнивание : Разделение по промежуткам
Продолжительность промежутка : 40 мс. (1,00 видеокадр)
Время предзагрузки промежутка : 500 мс.
         
         
Other forum [Profile] [PM]
Similar theme
Forum Topic Author Torrent Replies Last Post
./templates/default/images/folder_dl.gif Фантастика, фэнтези, ужасы, мистика Морган Ричард - Такеси Ковач 2, Сломанные ангелы [Сергей Краснов, (ЛИ), 2016 г., 192 kbps, MP3] Omen
1 | 0

0 | 700

1

2016-09-12 01:00
Omen Latest
Display posts from previous:    
Reply to topic

The time now is: Today 21:12

All times are GMT + 3 Hours



You cannot post new topics in this forum
You cannot reply to topics in this forum
You cannot edit your posts in this forum
You cannot delete your posts in this forum
You cannot vote in polls in this forum
You cannot attach files in this forum
You cannot download files in this forum