Today is a free download without charge Download

Пекка (Лидия Сурикова)[1985.,Кукольный, Детский, Сказка] DVDRip

Reply to topic
 
Author
Message

sashau ®

Gender:

Longevity: 8 years 10 months

Posts: 3497

Торрент-статистика

Post 27-Oct-2013 09:17

[Quote]

Пекка - Год выпуска: 1985
Жанр: Кукольный, Детский, Сказка
Режиссер: Лидия Сурикова
Страна: СССР, ТО „Экран“
Оператор: Л.Ревтов
Композитор: В.Назаров
Персонажи: А.Борзунов, Т.Петрова, А.Пеньков, Н.Гуляева, В.Невинный
Описание фильма:
Мультипликационный фильм для детей по мотивам карельских сказок о крестьянине Пекке.
Продолжительность: 00:10:00
Качество видео: DVDRip
Видеокодек: Xvid
Битрейт видео: ~1999 Кбит/сек
Размер кадра: 720x552
Аудиокодек: MP3, 1 ch
Битрейт аудио: 96,0 Кбит/сек

MediaInfo:

Общее
Полное имя : W:\Интересно\!Детские\Пекка\Пекка (1985) DVDRip.avi
Формат : AVI
Формат/Информация : Audio Video Interleave
Размер файла : 151 Мбайт
Продолжительность : 10 м.
Общий поток : 2105 Кбит/сек
Библиотека кодирования : VirtualDubMod build 2550/release
Видео
Идентификатор : 0
Формат : MPEG-4 Visual
Профиль формата : Advanced [email protected]
Параметр BVOP формата : 2
Параметр QPel формата : Нет
Параметр GMC формата : Без точки перехода
Параметр матрицы формата : Default (H.263)
Идентификатор кодека : XVID
Идентификатор кодека/Подсказка : XviD
Продолжительность : 10 м.
Битрейт : 1999 Кбит/сек
Ширина : 720 пикселей
Высота : 552 пикселя
Соотношение сторон : 4:3
Частота кадров : 25,000 кадров/сек
Цветовое пространство : YUV
Субдискретизация насыщенности : 4:2:0
Битовая глубина : 8 бит
Тип развёртки : Прогрессивная
Метод сжатия : С потерями
Бит/(Пиксели*Кадры) : 0.201
Размер потока : 143 Мбайт (95%)
Библиотека кодирования : XviD 1.2.1 (UTC 2008-12-04)
Аудио
Идентификатор : 1
Формат : MPEG Audio
Версия формата : Version 1
Профиль формата : Layer 3
Идентификатор кодека : 55
Идентификатор кодека/Подсказка : MP3
Продолжительность : 10 м.
Вид битрейта : Постоянный
Битрейт : 96,0 Кбит/сек
Каналы : 1 канал
Частота : 48,0 КГц
Метод сжатия : С потерями
Размер потока : 6,88 Мбайт (5%)
Выравнивание : Соединение по промежуткам
Продолжительность промежутка : 40 мс. (1,00 видеокадр)
Время предзагрузки промежутка : 504 мс.
Скриншоты:
         
         
Время раздачи: С 10:00 до 23:00
Other forum [Profile] [PM]
Display posts from previous:    
Reply to topic

The time now is: Today 03:47

All times are GMT + 3 Hours



You cannot post new topics in this forum
You cannot reply to topics in this forum
You cannot edit your posts in this forum
You cannot delete your posts in this forum
You cannot vote in polls in this forum
You cannot attach files in this forum
You cannot download files in this forum