Today is a free download without charge Download

Discovery. Шахты на Луне / Mining the Moon (2008) HDTVRip [H.264/720p-LQ]

Reply to topic
 
Author
Message

UndegraundMen ®

Longevity: 7 years 7 months

Posts: 25145

Торрент-статистика

Post 26-Oct-2013 20:51

[Quote]

Discovery. Шахты на Луне / Mining the Moon (2008) HDTVRip [H.264/720p-LQ]- Режиссер / Телекомпания: Роб Бимер / Flight 33 Productions, Discovery Channel
Страна: США
Год выпуска: 2008
Жанр: Документальный, научная фантастика
Описание: Год 2030... На Луну высаживается команда, а на Земле нарастает энергетический и экономический кризис, угрожающий выйти из-под контроля. Задача этой команды - испытание нового комбайна, созданного для добычи из лунной почвы драгоценного природного ресурса и доставки его на Землю. Если комбайн сможет собрать достаточное количество этого редкого элемента, он сможет стать источником нового вида производства энергии на Земле, который не дает парниковых газов и радиоактивных отходов. На чаше весов - судьба мировой экономики и здоровье планеты, если команда вернется с этим драгоценным грузом...
Продолжительность: 00:43:57
Перевод: Одноголосый закадровый (профессиональный)
Формат файла: MKV
Видеокодек: MPEG-4 AVC/H.264
Битрейт видео: ~3174 Кбит/с
Размер кадра: 1280 x 720
Качество видео: HDTVRip [720p-LQ]
Аудио:
1. [русский] AC3, 2 ch, 128 Кбит/с
2. [english] AC3, 6 ch, 384 Кбит/с

MediaInfo

General
Unique ID : 246724953390314470020155855957579260126 (0xB99D7F61274D86868211BC6BE333E0DE)
Complete name : Z:\РЕЛИЗЫ\Discovery.Mining.The.Moon.2008.HDTVRip.720p.mkv
Format : Matroska
Format version : Version 2
File size : 1.13 GiB
Duration : 43mn 57s
Overall bit rate : 3 687 Kbps
Encoded date : UTC 2011-04-24 18:20:08
Writing application : mkvmerge v3.2.0 ('Beginnings') built on Feb 12 2010 16:46:17
Writing library : libebml v0.7.9 + libmatroska v0.8.1
Video
ID : 1
Format : AVC
Format/Info : Advanced Video Codec
Format profile : [url=mailto:[email protected]][email protected][/url]
Format settings, CABAC : Yes
Format settings, ReFrames : 5 frames
Codec ID : V_MPEG4/ISO/AVC
Duration : 43mn 57s
Bit rate : 3 174 Kbps
Width : 1 280 pixels
Height : 720 pixels
Display aspect ratio : 16:9
Frame rate mode : Constant
Frame rate : 25.000 fps
Color space : YUV
Chroma subsampling : 4:2:0
Bit depth : 8 bits
Scan type : Progressive
Bits/(Pixel*Frame) : 0.138
Stream size : 975 MiB (84%)
Writing library : x264 core 107 r1766M f9f0035
Encoding settings : cabac=1 / ref=5 / deblock=1:0:0 / analyse=0x3:0x113 / me=umh / subme=8 / psy=1 / psy_rd=1.00:0.00 / mixed_ref=1 / me_range=16 / chroma_me=1 / trellis=1 / 8x8dct=1 / cqm=0 / deadzone=21,11 / fast_pskip=1 / chroma_qp_offset=-2 / threads=12 / sliced_threads=0 / nr=0 / decimate=1 / interlaced=0 / constrained_intra=0 / bframes=3 / b_pyramid=2 / b_adapt=1 / b_bias=0 / direct=3 / weightb=1 / open_gop=0 / weightp=2 / keyint=250 / keyint_min=25 / scenecut=40 / intra_refresh=0 / rc_lookahead=40 / rc=2pass / mbtree=1 / bitrate=3174 / ratetol=1.0 / qcomp=0.60 / qpmin=10 / qpmax=51 / qpstep=4 / cplxblur=20.0 / qblur=0.5 / ip_ratio=1.40 / aq=1:1.00
Language : English
Default : No
Forced : No
Audio #1
ID : 2
Format : AC-3
Format/Info : Audio Coding 3
Mode extension : CM (complete main)
Format settings, Endianness : Big
Codec ID : A_AC3
Duration : 43mn 57s
Bit rate mode : Constant
Bit rate : 128 Kbps
Channel(s) : 2 channels
Channel positions : Front: L R
Sampling rate : 48.0 KHz
Bit depth : 16 bits
Compression mode : Lossy
Stream size : 40.2 MiB (3%)
Title : waxty
Language : Russian
Default : Yes
Forced : Yes
Audio #2
ID : 3
Format : AC-3
Format/Info : Audio Coding 3
Mode extension : CM (complete main)
Format settings, Endianness : Big
Codec ID : A_AC3
Duration : 43mn 57s
Bit rate mode : Constant
Bit rate : 384 Kbps
Channel(s) : 6 channels
Channel positions : Front: L C R, Side: L R, LFE
Sampling rate : 48.0 KHz
Bit depth : 16 bits
Compression mode : Lossy
Stream size : 121 MiB (10%)
Title : mining
Language : English
Default : No
Forced : No
Скриншоты:
         
         
Пожалуйста, не уходите с раздачи - помогите докачать другим. Если понравился релиз - жмите кнопку "Спасибо"!

Благодарности

Автор рипа - TERRA,
Сведение дорожки и автор постера - nyctalus,
Для работы использована дорожка от IPTVRip, а также иллюстрации с официального сайта NASA
Other forum [Profile] [PM]
Display posts from previous:    
Reply to topic

The time now is: Today 09:06

All times are GMT + 3 Hours



You cannot post new topics in this forum
You cannot reply to topics in this forum
You cannot edit your posts in this forum
You cannot delete your posts in this forum
You cannot vote in polls in this forum
You cannot attach files in this forum
You cannot download files in this forum