Today is a free download without charge Download

Discovery. Американские гангстеры / American Gangsters (2000) DVDRip [3 серии из 3]

Reply to topic
 
Author
Message

UndegraundMen ®

Longevity: 7 years 7 months

Posts: 25145

Торрент-статистика

Post 26-Oct-2013 20:51

[Quote]

Discovery. Американские гангстеры / American Gangsters (2000) DVDRip [3 серии из 3]- Режиссер / Телекомпания: Крис Лент / Discovery Communications Inc.
Страна: Великобритания, США
Год выпуска: 20
Жанр: Документальный, постановочный, криминал, расследования
Релиз от Fандорин
Описание: На заре XX века, когда волна иммигрантов захлестнула Америку, романтические стрелки Дикого Запада уступили место гангстерам больших городов. В этом мире каждый по-своему воплощал свою "американскую мечту", подчас прокладывая к ней путь кровью, страхом и насилием. Перед Вами история американского преступного мира, охватывающая период с начала XX века до 1930-х годов, увлекательный рассказ о том, как отчаянные гангстеры стали всемогущими мафиози, незримо правившими страной.
Продолжительность: 3x ~00:50:00
Перевод: Двухголосый закадровый (профессиональный)
Формат файла: AVI
Видеокодек: XviD
Битрейт видео: ~1760 Кбит/с
Размер кадра: 704 x 512
Качество видео: DVDRip
Аудио: AC3, 2.0 ch, 192 Кбит/с

Серия 01. Земля обетованная

1900-е годы. Банды иммигрантов становятся хозяевами улиц, предоставляя всем, кто готов рискнуть, возможность быстрой наживы. Уловив новое веяние, Голливуд добавляет романтики в их ремесло: так рождается новый жанр - "гангстерское кино". Появление гангстерских групп сильно изменяет американскую жизнь: криминальная журналистика переживает свой "звездный час", власти создают систему федеральных правоохранительных служб, а сами гангстеры спонсируют новомодную заводную музыку - джаз!Скриншоты:
         

Серия 02. Сухой закон

Щедрый подарок гангстерам делает в 1920 году правительство США. Введение "сухого закона" порождает империю бутлегеров, нелегальных производителей и поставщиков спиртного, ставшую вотчиной таких легендарных гангстеров, как Аль Капоне и Билл МакКой. В подпольных барах виски и деньги текут рекой, но гангстерам некогда расслабляться - по всей стране противоборствующие группировки ведут отчаянную войну за главенство в подпольном мире.Скриншоты:
         

Серия 03. Мафия уходит в подполье

30-е годы, Нью-Йорк. На место гангстеров приходит мафия, которая решает свои проблемы не в уличных разборках, а за закрытыми дверями элитных клубов и кабинетов важных чиновников. Король нового подпольного мира, Сальваторе "Счастливчик" Лучиано, объединяет крупнейшие нью-йоркские "семьи" в один боевой кулак - столь сильный, что вскоре ему покоряется вся страна.Скриншоты:
         
Скриншоты:
         
         

MediaInfo (параметры всех серий одинаковы)

General
Complete name : Z:\РЕЛИЗЫ\Discovery.American.Gansters.DVDRip.(3.iz.3)\01.Discovery.America.Gansters.DVDRip.avi
Format : AVI
Format/Info : Audio Video Interleave
File size : 698 MiB
Duration : 50mn 13s
Overall bit rate : 1 943 Kbps
Writing application : FairUse Wizard - http://fairusewizard.com
Writing library : The best and REALLY easy backup tool
Video
ID : 0
Format : MPEG-4 Visual
Format profile : Advanced [email protected]
Format settings, BVOP : 1
Format settings, QPel : No
Format settings, GMC : No warppoints
Format settings, Matrix : Default (H.263)
Muxing mode : Packed bitstream
Codec ID : XVID
Codec ID/Hint : XviD
Duration : 50mn 13s
Bit rate : 1 741 Kbps
Width : 704 pixels
Height : 512 pixels
Display aspect ratio : 1.375
Frame rate : 25.000 fps
Color space : YUV
Chroma subsampling : 4:2:0
Bit depth : 8 bits
Scan type : Progressive
Compression mode : Lossy
Bits/(Pixel*Frame) : 0.193
Stream size : 625 MiB (90%)
Writing library : XviD 1.1.0 (UTC 2005-11-22)
Audio
ID : 1
Format : AC-3
Format/Info : Audio Coding 3
Mode extension : CM (complete main)
Format settings, Endianness : Big
Codec ID : 2000
Duration : 50mn 13s
Bit rate mode : Constant
Bit rate : 192 Kbps
Channel(s) : 2 channels
Channel positions : Front: L R
Sampling rate : 48.0 KHz
Bit depth : 16 bits
Compression mode : Lossy
Stream size : 69.0 MiB (10%)
Alignment : Split accross interleaves
Interleave, duration : 40 ms (1.00 video frame)
Interleave, preload duration : 500 ms
Пожалуйста, не уходите с раздачи - помогите докачать другим. Если понравился релиз - жмите кнопку "Спасибо"!
Other forum [Profile] [PM]
Display posts from previous:    
Reply to topic

The time now is: Today 17:10

All times are GMT + 3 Hours



You cannot post new topics in this forum
You cannot reply to topics in this forum
You cannot edit your posts in this forum
You cannot delete your posts in this forum
You cannot vote in polls in this forum
You cannot attach files in this forum
You cannot download files in this forum