Today is a free download without charge Download

Разиня / Le corniaud (Жерар Ури) [1965, комедия, криминал, HDRip] DUB

Reply to topic
 
Author
Message

DED ®

Longevity: 8 years

Posts: 3943

Торрент-статистика

Post 25-Oct-2013 15:07

[Quote]

--Разиня / Le corniaud-- Год выпуска: 1965
Страна: Франция, Италия
Жанр: комедия, криминал
Продолжительность: 01:50:29
Перевод: Профессиональный (полное дублирование) [Советский дубляж]-Режиссер: Жерар Ури-В ролях: Бурвиль, Луи де Фюнес, Венантино Венантини, Анри Женес, Ландо Будзанка, Жак Эйзер, Анри Вирложё, Жан Мейер, Джек Ари...-Описание: Антуан Марешаль, в качестве компенсации за разбитую машину, получает от богатого промышленика Леопольда Сарояна роскошный кабриолет, оборудованный телефоном и стереосистемой. Вне себя от счастья, он продолжает свое путешествие в Италию.
Однако бесплатный сыр бывает только в мышеловке. Марешаль не подозревает, что его используют гангстеры во главе с Сарояном. Дареный автомобиль напичкан золотом и наркотиками, а на хвосте у Марешаля теперь сидят две соперничающие банды контрабандистов…-- --Качество видео: HDRip
Формат видео: AVI
Видео кодек: XviD
Аудио кодек: MP3
Видео: 640x272 (2.35:1), 24.000 fps, XviD build 73, ~806 kbps avg, 0.193 bit/pixel
Аудио: 48.0 kHz, MPEG Layer 3, 2 ch, ~128.00 kbps avg
Cубтитры: нет--

Media Info

D:Мои рипыLe.Corniaud.1965.HDRip.745mb.dexter_lex.avi
General
Complete name : D:Мои рипыLe.Corniaud.1965.HDRip.745mb.dexter_lex.avi
Format : AVI
Format/Info : Audio Video Interleave
File size : 746 MiB
Duration : 1h 50mn
Overall bit rate : 944 Kbps
Writing application : VirtualDubMod 1.5.10.3 | www.virtualdub-fr.org || (build 2550/release)
Writing library : VirtualDubMod build 2550/release
Video #0
ID : 0
Format : MPEG-4 Visual
Format profile : Advanced [email protected]
Format settings, BVOP : 1
Format settings, QPel : No
Format settings, GMC : No warppoints
Format settings, Matrix : Custom
Codec ID : XVID
Codec ID/Hint : XviD
Duration : 1h 50mn
Bit rate : 806 Kbps
Width : 640 pixels
Height : 272 pixels
Display aspect ratio : 2.35:1
Frame rate : 24.000 fps
Color space : YUV
Chroma subsampling : 4:2:0
Bit depth : 8 bits
Scan type : Progressive
Compression mode : Lossy
Bits/(Pixel*Frame) : 0.193
Stream size : 637 MiB (85%)
Writing library : XviD 73
Audio #1
ID : 1
Format : MPEG Audio
Format version : Version 1
Format profile : Layer 3
Codec ID : 55
Codec ID/Hint : MP3
Duration : 1h 50mn
Bit rate mode : Constant
Bit rate : 128 Kbps
Channel(s) : 2 channels
Sampling rate : 48.0 KHz
Compression mode : Lossy
Stream size : 101 MiB (14%)
Alignment : Aligned on interleaves
Interleave, duration : 42 ms (1.00 video frame)
Interleave, preload duration : 504 ms
Writing library : LAME3.99r
Encoding settings : -m s -V 4 -q 2 -lowpass 17 -b 128

Скриншоты

     
-- --
Other forum [Profile] [PM]
Display posts from previous:    
Reply to topic

The time now is: Today 15:00

All times are GMT + 3 Hours



You cannot post new topics in this forum
You cannot reply to topics in this forum
You cannot edit your posts in this forum
You cannot delete your posts in this forum
You cannot vote in polls in this forum
You cannot attach files in this forum
You cannot download files in this forum