Today is a free download without charge Download

Discovery: Разрушители легенд. Живые подушки безопастности / MythBusters. Hypermiling, Crash Cushions (Сезон 12, эпизод 7) (2013) SATRip [Discovery]

Reply to topic
 
Author
Message

UndegraundMen ®

Longevity: 7 years 7 months

Posts: 25145

Торрент-статистика

Post 23-Oct-2013 21:47

[Quote]

Разрушители легенд. Живые подушки безопастности / MythBusters. Hypermiling, Crash Cushions (Сезон 12, эпизод 7) (2013) SATRip [Discovery] - Режиссер / Телекомпания: Discovery
Русское название: Разрушители легенд
Оригинальное название: MythBusters
Год выпуска: 2013
Жанр: Познавательное шоу
Описание:
«Разрушители легенд» (англ. MythBusters) — американская научно-популярная телепередача на канале Discovery Channel. Передачу ведут специалисты по спецэффектам Джейми Хайнеман и Адам Севидж, использующие свои навыки и опыт для экспериментальной проверки различных баек, слухов, городских легенд и других порождений популярной культуры. Съёмки передачи обычно проходят в области залива Сан-Франциско.
Каждый из часовых выпусков «Разрушители легенд» посвящён двум или трём городским легендам, распространённым убеждениям или слухам из интернета. Основной миф часто требует всесторонней подготовки и полигона, кроме него в передачу также включают один-два не столь хлопотных в плане подготовки и проведения мифа. На сегодняшний день, однако, три эксперимента (35, 40, и 46) были настолько сложными, что заняли весь час, отведённый на передачу.
В выпуске:
В этом эпизоде Разрушители легенд проверяют, может ли сидящий в автомобиле между двумя толстяками человек выжить в аварии, и тестируют эффективность нескольких способов экономии топлива, связанных со стилем вождения.
Ведущий: Adam Savage, Jamie Hyneman, Kari Byron, Grant Imahara, Tory Belleci
Режиссёр: Steve Christiansen, Lauren Williams
Перевод: Профессиональный (многоголосый, закадровый) Discovery
Продолжительность: ~ 00:43:56
Видеокодек: XviD
Битрейт видео: ~1499 kb/s
Размер кадра: 720 x 400
Качество видео: SATRip
Аудиокодек: AC-3, 2ch.
Битрейт аудио: 192 kb/s

MediaInfo

Формат : AVI
Формат/Информация : Audio Video Interleave
Размер файла : 534 Мбайт
Продолжительность : 43 м.
Общий поток : 1699 Кбит/сек
Программа кодирования : TMPGEnc Video Mastering Works 5 Version. 5.0.6.38
Библиотека кодирования : TMPGEnc Video Mastering Works 5 Version. 5.0.6.38
Видео
Идентификатор : 0
Формат : MPEG-4 Visual
Профиль формата : Advanced [email protected]
Параметр BVOP формата : 2
Параметр QPel формата : Нет
Параметр GMC формата : Без точки перехода
Параметр матрицы формата : Default (H.263)
Режим смешивания : Сжатый битовый поток
Идентификатор кодека : XVID
Идентификатор кодека/Подсказка : XviD
Продолжительность : 43 м.
Битрейт : 1499 Кбит/сек
Ширина : 720 пикселей
Высота : 400 пикселей
Соотношение сторон : 16:9
Частота кадров : 25,000 кадров/сек
Цветовое пространство : YUV
Субдискретизация насыщенности : 4:2:0
Битовая глубина : 8 бит
Тип развёртки : Прогрессивная
Метод сжатия : С потерями
Бит/(Пиксели*Кадры) : 0.208
Размер потока : 471 Мбайт (88%)
Библиотека кодирования : XviD 64
Аудио
Идентификатор : 1
Формат : AC-3
Формат/Информация : Audio Coding 3
Расширение режима : CM (complete main)
Идентификатор кодека : 2000
Продолжительность : 43 м.
Вид битрейта : Постоянный
Битрейт : 192 Кбит/сек
Каналы : 2 канала
Расположение каналов : Front: L R
Частота : 48,0 КГц
Битовая глубина : 16 бит
Метод сжатия : С потерями
Размер потока : 60,4 Мбайт (11%)
Выравнивание : Соединение по промежуткам
Продолжительность промежутка : 240 мс. (6,00 видеокадров)
Время предзагрузки промежутка : 224 мс.
Скриншоты:                    
Other forum [Profile] [PM]
Display posts from previous:    
Reply to topic

The time now is: Today 16:36

All times are GMT + 3 Hours



You cannot post new topics in this forum
You cannot reply to topics in this forum
You cannot edit your posts in this forum
You cannot delete your posts in this forum
You cannot vote in polls in this forum
You cannot attach files in this forum
You cannot download files in this forum