Today is a free download without charge Download

Discovery: Секс. Когда нужна помощь / Sex Hospiital (2013) SATRip

Reply to topic
 
Author
Message

UndegraundMen ®

Longevity: 7 years 7 months

Posts: 25145

Торрент-статистика

Post 23-Oct-2013 21:47

[Quote]

Discovery: Секс. Когда нужна помощь / Sex Hospiital (2013) SATRip - Режиссер / Телекомпания: TLC & Discovery
Русское название: Секс. Когда нужна помощь
Оригинальное название: Sex Hospiital
Год выпуска: 2013
Жанр: Документальный
Описание:
14 пар столкнулись с проблемами в сексуальной жизни, которые могут привести к расставанию - от измены до неуверенности в себе. Развлечение и желание - секс должен соединять двух людей, но сейчас он отдаляет их друг от друга. Пытаясь спасти свои шаткие отношения, пары готовы пройти ускоренный секс-курс. Двое ведущих экспертов в области секса помогут исправить нарушения в постели. Здесь нет секретов, никаких табу в обсуждениях. Когда в отношения кризис, секс-лечебница поможет найти ключ к счастью...
Режиссер: Джеймс Каприя, Эмма Пич, Лана Салах
Перевод: Профессиональный двухголосый
Продолжительность: ~ 00:43:54
Видеокодек: XVID
Битрейт видео: ~1500 kb/s
Размер кадра: 704 x 464
Качество видео: SATRip
Аудиокодек: AC-3, 2ch.
Битрейт аудио: 192 kb/s

MediaInfo

Формат : AVI
Формат/Информация : Audio Video Interleave
Размер файла : 534 Мбайт
Продолжительность : 43 м.
Общий поток : 1701 Кбит/сек
Программа кодирования : VirtualDubMod 1.5.10.3 | www.virtualdub-fr.org || (build 2550/release)
Библиотека кодирования : VirtualDubMod build 2550/release
Видео
Идентификатор : 0
Формат : MPEG-4 Visual
Профиль формата : Advanced [email protected]
Параметр BVOP формата : 2
Параметр QPel формата : Нет
Параметр GMC формата : Без точки перехода
Параметр матрицы формата : Default (MPEG)
Идентификатор кодека : XVID
Идентификатор кодека/Подсказка : XviD
Продолжительность : 43 м.
Битрейт : 1499 Кбит/сек
Ширина : 704 пикселя
Высота : 464 пикселя
Соотношение сторон : 3:2
Частота кадров : 25,000 кадров/сек
Цветовое пространство : YUV
Субдискретизация насыщенности : 4:2:0
Битовая глубина : 8 бит
Тип развёртки : Прогрессивная
Метод сжатия : С потерями
Бит/(Пиксели*Кадры) : 0.184
Размер потока : 471 Мбайт (88%)
Библиотека кодирования : XviD 1.2.1 (UTC 2008-12-04)
Аудио
Идентификатор : 1
Формат : AC-3
Формат/Информация : Audio Coding 3
Расширение режима : CM (complete main)
Идентификатор кодека : 2000
Продолжительность : 43 м.
Вид битрейта : Постоянный
Битрейт : 192 Кбит/сек
Каналы : 2 канала
Расположение каналов : Front: L R
Частота : 48,0 КГц
Битовая глубина : 16 бит
Метод сжатия : С потерями
Размер потока : 60,3 Мбайт (11%)
Выравнивание : Разделение по промежуткам
Продолжительность промежутка : 40 мс. (1,00 видеокадр)
Время предзагрузки промежутка : 500 мс.
Скриншоты:                    Время раздачи: 24/7. До первых 5 скачавших.
Rip by MILALUD
Other forum [Profile] [PM]
Display posts from previous:    
Reply to topic

The time now is: Today 18:12

All times are GMT + 3 Hours



You cannot post new topics in this forum
You cannot reply to topics in this forum
You cannot edit your posts in this forum
You cannot delete your posts in this forum
You cannot vote in polls in this forum
You cannot attach files in this forum
You cannot download files in this forum