Today is a free download without charge Download

Discovery: Главнокомандующий. Внутри Овального кабинета / Commander in Chief.Inside the oval office (Серия №2) (2012) SATRip

Reply to topic
 
Author
Message

UndegraundMen ®

Longevity: 7 years 7 months

Posts: 25145

Торрент-статистика

Post 22-Oct-2013 23:00

[Quote]

Discovery: Главнокомандующий. Внутри Овального кабинета / Commander in Chief.Inside the oval office (Серия №2) (2012) SATRip - Режиссер / Телекомпания: Discovery
Русское название: Главнокомандующий. Внутри Овального кабинета
Оригинальное название: Commander in Chief.Inside the oval office
Год выпуска: 2012
Жанр: Документальный, история, публицистика, реконструкция
Выпущено: Discovery World Stephen David Entertainment
Описание:
Не многие способны влиять на ход истории. Их приказы определяют судьбы миллионов и посылают на смерть тысячи. Из Овального кабинета на поле боя. Истории самых эпических сражений глазами Главнокомандующих. Познакомьтесь с увлекательными подробностями за кулисами президентских решений и с кино-аудио материалами, недавно выпущенных президентских документов, а также с эксклюзивными интервью с теми, кто был там. Речь идет о различных ситуациях и президентах, но каждое решение повлияло на ход истории.
Режиссер: Лелэнд Крэйн
В выпуске:
2. Операция против бен Ладена / Bin Laden Raid. Когда сотрудники ЦРУ отследили бен Ладена после его таинственного исчезновения, президент Барак Обама принял непростое сложное решение.
Перевод: Профессиональный одноголосый
Продолжительность: ~ 00:43:47
Видеокодек: DviX
Битрейт видео: ~1697 kb/s
Размер кадра: 720 x 400
Качество видео: SATRip
Аудиокодек: MP3, 1ch.
Битрейт аудио: 128 kb/s

MediaInfo

Формат : AVI
Формат/Информация : Audio Video Interleave
Размер файла : 575 Мбайт
Продолжительность : 43 м.
Общий поток : 1835 Кбит/сек
Библиотека кодирования : Boilsoft Joiner build 2411/release
Видео
Идентификатор : 0
Формат : MPEG-4 Visual
Профиль формата : Advanced [email protected]
Параметр BVOP формата : 2
Параметр QPel формата : Нет
Параметр GMC формата : Без точки перехода
Параметр матрицы формата : Default (MPEG)
Идентификатор кодека : DX50
Идентификатор кодека/Подсказка : DivX 5
Продолжительность : 43 м.
Битрейт : 1697 Кбит/сек
Ширина : 720 пикселей
Высота : 400 пикселей
Соотношение сторон : 16:9
Частота кадров : 25,000 кадров/сек
Цветовое пространство : YUV
Субдискретизация насыщенности : 4:2:0
Битовая глубина : 8 бит
Тип развёртки : Прогрессивная
Метод сжатия : С потерями
Бит/(Пиксели*Кадры) : 0.236
Размер потока : 532 Мбайт (92%)
Библиотека кодирования : XviD 73
Аудио
Идентификатор : 1
Формат : MPEG Audio
Версия формата : Version 1
Профиль формата : Layer 3
Идентификатор кодека : 55
Идентификатор кодека/Подсказка : MP3
Продолжительность : 43 м.
Вид битрейта : Постоянный
Битрейт : 128 Кбит/сек
Каналы : 2 канала
Частота : 48,0 КГц
Метод сжатия : С потерями
Задержка видео : 8 мс.
Размер потока : 40,1 Мбайт (7%)
Выравнивание : Разделение по промежуткам
Продолжительность промежутка : 40 мс. (1,00 видеокадр)
Время предзагрузки промежутка : 500 мс.
Скриншоты:                    
Other forum [Profile] [PM]
Display posts from previous:    
Reply to topic

The time now is: Today 16:04

All times are GMT + 3 Hours



You cannot post new topics in this forum
You cannot reply to topics in this forum
You cannot edit your posts in this forum
You cannot delete your posts in this forum
You cannot vote in polls in this forum
You cannot attach files in this forum
You cannot download files in this forum