Today is a free download without charge Download

Человек-амфибия (Геннадий Казанский, Владимир Чеботарев) [1961, СССР, Фантастика / Мелодрама, BDRemux 1080p] + Original Rus

Reply to topic
 
Author
Message

Omen ®

Longevity: 8 years 10 months

Posts: 181086

Торрент-статистика

Post 21-Oct-2013 22:00

[Quote]

Человек-амфибия
Страна: СССР
Студия: Ленфильм
Жанр: Фантастика / Мелодрама
Год выпуска: 1961
Продолжительность: 01:36:21
Перевод: Не требуется
Cубтитры: русские, английские, французские, немецкие, итальянские, португальские, испанские, болгарские, чешские, румынские
Оригинальная аудиодорожка: русский
Режиссер: Геннадий Казанский, Владимир Чеботарев
В ролях: Владимир Коренев, Анастасия Вертинская, Михаил Козаков, Николай Симонов, Владлен Давыдов, Анатолий Смиранин, Анатолий Иванов, Валерий Кудряшов, Николай Кузьмин
Описание: Однажды талантливый ученый доктор Сальватор спас жизнь маленькому мальчику, пересадив ему жабры акулы. С этого дня Ихтиандр, так назвал своего приемного сына ученый, мог плавать под водой, как рыба, нырять на любую глубину, но ему было тяжело подолгу находиться на суше... Годы спустя по тихому морскому городу поползли слухи о странном существе, наводящем ужас на всех рыбаков, o «морском дьяволе». В это же самое время в городе появляется молодой человек, который мало общается с людьми и прекрасно плавает. Он знакомится с дочерью бедного ныряльщика за жемчугом, красавицей Гутиэре и без памяти в нее влюбляется...
Доп. информация: Полная реставрация изображения и звука. Исходные киноматериалы подготовлены Госфильмофондом России. Покадровая цифровая реставрация изображения, ремастеринг звука и авторинг проведены объединением «Крупный план».
Сэмпл: http://ifolder.com.ua/xeucdt3769s9.html
Тип релиза: BDRemux 1080p
Контейнер: MKV
Видео: 24,6 Мбит/сек, 1920 x 1080 (16:9), в 23.976 кадр/сек, AVC (NTSC) ([email protected]) (CABAC / 4 Ref Frames)
Аудио: 1510 Кбит/сек 48,0 КГц, 24 бит, 6 каналов, DTS

MediaInfo

Общее
Уникальный идентификатор : 176856590480153122135213655711411575185 (0x850D5720F7B505BEA81F3A4DE5E79991)
Полное имя : G:\Человек-амфибия 1961, BD Remux.mkv
Формат : Matroska
Версия формата : Version 2
Размер файла : 17,9 Гбайт
Продолжительность : 1 ч. 36 м.
Общий поток : 26,6 Мбит/сек
Название фильма : Человек-амфибия
Дата кодирования : UTC 2011-07-30 13:52:21
Программа кодирования : mkvmerge v4.8.0 ('I Got The...') сборка от May 24 2011 03:12:58
Библиотека кодирования : libebml v1.2.0 + libmatroska v1.1.0
Видео
Идентификатор : 1
Формат : AVC
Формат/Информация : Advanced Video Codec
Профиль формата : [email protected]
Параметр CABAC формата : Да
Параметр ReFrames формата : 4 кадра
Идентификатор кодека : V_MPEG4/ISO/AVC
Продолжительность : 1 ч. 36 м.
Вид битрейта : Переменный
Битрейт : 24,6 Мбит/сек
Максимальный битрейт : 35,0 Мбит/сек
Ширина : 1920 пикс.
Высота : 1080 пикс.
Соотношение сторон : 16:9
Частота кадров : 23,976 кадр/сек
Стандарт вещания : NTSC
Цветовое пространство : YUV
Подвыборка цветности : 4:2:0
Битовая глубина : 8 бит
Тип развёртки : Прогрессивная
Бит/(Пиксели*Кадры) : 0.494
Размер потока : 16,5 Гбайт (92%)
Заголовок : Человек-амфибия
Язык : Russian
Основные цвета : BT.709-5, BT.1361, IEC 61966-2-4, SMPTE RP177
Характеристики трансфера : BT.709-5, BT.1361
Коэффициенты матрицы : BT.709-5, BT.1361, IEC 61966-2-4 709, SMPTE RP177
Аудио
Идентификатор : 2
Формат : DTS
Формат/Информация : Digital Theater Systems
Идентификатор кодека : A_DTS
Продолжительность : 1 ч. 36 м.
Вид битрейта : Постоянный
Битрейт : 1510 Кбит/сек
Каналы : 6 каналов
Расположение каналов : Front: L C R, Side: L R, LFE
Частота : 48,0 КГц
Битовая глубина : 24 бит
Метод сжатия : С потерями
Размер потока : 1,02 Гбайт (6%)
Заголовок : Russian (DTS 5.1 @ 1536 kbps)
Язык : Russian
Текст #1
Идентификатор : 3
Формат : UTF-8
Идентификатор кодека : S_TEXT/UTF8
Идентификатор кодека/Информация : UTF-8 Plain Text
Заголовок : Russian
Язык : Russian
Текст #2
Идентификатор : 4
Формат : UTF-8
Идентификатор кодека : S_TEXT/UTF8
Идентификатор кодека/Информация : UTF-8 Plain Text
Заголовок : English
Язык : English
Текст #3
Идентификатор : 5
Формат : UTF-8
Идентификатор кодека : S_TEXT/UTF8
Идентификатор кодека/Информация : UTF-8 Plain Text
Заголовок : French
Язык : French
Текст #4
Идентификатор : 6
Формат : UTF-8
Идентификатор кодека : S_TEXT/UTF8
Идентификатор кодека/Информация : UTF-8 Plain Text
Заголовок : German
Язык : German
Текст #5
Идентификатор : 7
Формат : UTF-8
Идентификатор кодека : S_TEXT/UTF8
Идентификатор кодека/Информация : UTF-8 Plain Text
Заголовок : Italian
Язык : Italian
Текст #6
Идентификатор : 8
Формат : UTF-8
Идентификатор кодека : S_TEXT/UTF8
Идентификатор кодека/Информация : UTF-8 Plain Text
Заголовок : Portuguese
Язык : Portuguese
Текст #7
Идентификатор : 9
Формат : UTF-8
Идентификатор кодека : S_TEXT/UTF8
Идентификатор кодека/Информация : UTF-8 Plain Text
Заголовок : Spanish
Язык : Spanish
Текст #8
Идентификатор : 10
Формат : UTF-8
Идентификатор кодека : S_TEXT/UTF8
Идентификатор кодека/Информация : UTF-8 Plain Text
Заголовок : Bulgarian
Язык : Bulgarian
Текст #9
Идентификатор : 11
Формат : UTF-8
Идентификатор кодека : S_TEXT/UTF8
Идентификатор кодека/Информация : UTF-8 Plain Text
Заголовок : Czech
Язык : Czech
Текст #10
Идентификатор : 12
Формат : UTF-8
Идентификатор кодека : S_TEXT/UTF8
Идентификатор кодека/Информация : UTF-8 Plain Text
Заголовок : Romanian
Язык : Romanian

Скриншоты

Other forum [Profile] [PM]

Dracula

Longevity: 7 years 11 months

Posts: 11006

Торрент-статистика

Post 26-Nov-2013 10:27 (after 1 month 4 days)

Топик был перенесен из форума Зарубежное кино (HD Video) в форум Наше кино


Delia
 
Similar theme
Forum Topic Author Torrent Replies Last Post
./templates/default/images/folder_dl.gif Обучающая и развивающая литература, учебники Юваль Ной Харари | Sapiens. Краткая история человечества (2016) [FB2] }{@R0N
1 | 0

0 | 888

7

2018-08-15 21:47
}{@R0N Latest
./templates/default/images/folder_dl.gif Зарубежное кино (HD Video) Бюро человечества / The Humanity Bureau (Роб В. Кинг) [2017, фантастика, боевик, BDRip 720p] MVO (iTunes) + Original Kon912
1 | 0

0 | 183

0

2020-06-30 22:56
Kon912 Latest
Display posts from previous:    
Reply to topic

The time now is: Today 19:36

All times are GMT + 3 Hours



You cannot post new topics in this forum
You cannot reply to topics in this forum
You cannot edit your posts in this forum
You cannot delete your posts in this forum
You cannot vote in polls in this forum
You cannot attach files in this forum
You cannot download files in this forum