Today is a free download without charge Download

Семьянин / The Family Man (Бретт Рэтнер) [2000 г., фэнтези, драма, мелодрама, комедия,, BDRip720p]

Reply to topic
 
Author
Message

Delia ®

Gender:

Longevity: 9 years 6 months

Posts: 1821

Торрент-статистика

Post 14-Oct-2011 12:39

[Quote]

СемьянинThe Family Man Год выпуска: 2000
Страна: США
Жанр: фэнтези, драма, мелодрама, комедия,
Продолжительность: 02:05:54
Перевод: Профессиональный (полное дублирование)
Режиссер: Бретт Рэтнер
Продюссер: Марк Абрахам, Тони Людвиг, Алан Ричи
Сценарий: Дэвид Даймонд, Дэвид Вайсман
Бюджет: $60 000 000
В ролях: Николас Кейдж, Теа Леони, Дон Чидл, Джереми Пивен, Сол Рубинек, Йозеф Зоммер, Макензи Вега, Джейк Миллкович, Лиза Торнхилл
Описание: 1987 год. Джек Кэмпбелл (Кэйдж) прощается с Кейт. Он улетает в Лондон. У Кейт самые дурные предчувствия, и она просит его остаться, но Джек улетает. Прошло 13 лет. Джек стал преуспевающим бизнесменом и на совещании требует, чтобы его сотрудники забыли о Сочельнике и остались в этот предпраздничный день на работе. Предстоит крупная сделка. И тут Джеку передают записку от Кейт Рейнолдс, той самой Кейт, его первой любви. Но он не хочет ей звонить, чтобы не ворошить прошлое и не расстраиваться от ностальгических воспоминаний.
Качество: BDRip720p
Формат: MKV
Видео кодек: H.264
Аудио кодек: AC3
Видео: English, 4049 Кбит/сек, 1280*544 (2,35:1), в 23,976 кадр/сек, AVC ([email protected])
Аудио: Russian, 192 Кбит/сек, 48,0 КГц, 16 бит, 2 канала(ов), AC-3 | дубляж
Аудио:Ukrainian, 192 Кбит/сек, 48,0 КГц, 16 бит, 2 канала(ов), AC-3 | MVO - "Новий Канал")
Субтитры:Russian, English (VobSub)
Отдельно:
Russian,192 Кбит/сек, 48,0 КГц, 16 бит, 2 канала(ов), AC-3 (MVO - "PTP")
Russian,448 Кбит/сек, 48,0 КГц, 16 бит, 6 канала(ов), AC-3 (MVO R5)
Russian,448 Кбит/сек, 48,0 КГц, 16 бит, 6 канала(ов), AC-3 (VO - Живов)
English, 288 Мбайт, 2 ч. 5 м.320 Кбит/сек, 48,0 КГц, 16 бит, 6 канала(ов), AC-3 ( оригинал)

MI:

Код:
Общее
Уникальный идентификатор         : 206955384439042317807031279932143659275 (0x9BB2283E8B0A5B2FA89243445661690B)
Полное имя                       : E:\торрент\The Family Man (2000)BDRip720p\The Family Man (2000)BDRip720p .mkv
Формат                           : Matroska
Размер файла                     : 3,91 Гбайт
Продолжительность                : 2 ч. 5 м.
Общий поток                      : 4442 Кбит/сек
Дата кодирования                 : UTC 2011-10-14 03:42:18
Программа кодирования            : mkvmerge v5.0.0 ('Die Wahre Liebe') built on Sep 25 2011 20:33:49
Библиотека кодирования           : libebml v1.2.2 + libmatroska v1.3.0
Видео
Идентификатор                    : 1
Формат                           : AVC
Формат/Информация                : Advanced Video Codec
Профиль формата                  : [email protected]
Параметр CABAC формата           : Да
Параметр ReFrames формата        : 9 кадры
Идентификатор кодека             : V_MPEG4/ISO/AVC
Продолжительность                : 2 ч. 5 м.
Битрейт                          : 4049 Кбит/сек
Ширина                           : 1280 пикс.
Высота                           : 544 пикс.
Соотношение сторон               : 2,35:1
Частота кадров                   : 23,976 кадр/сек
Цветовое пространство            : YUV
Подвыборка цветности             : 4:2:0
Битовая глубина                  : 8 бит
Тип развёртки                    : Прогрессивная
Бит/(Пиксели*Кадры)              : 0.243
Размер потока                    : 3,49 Гбайт (89%)
Библиотека кодирования           : x264 core 118 r2085 8a62835
Настройки программы              : cabac=1 / ref=9 / deblock=1:-3:-3 / analyse=0x3:0x133 / me=umh / subme=9 / psy=1 / psy_rd=1.00:0.20 / mixed_ref=1 / me_range=32 / chroma_me=1 / trellis=2 / 8x8dct=1 / cqm=0 / deadzone=21,11 / fast_pskip=0 / chroma_qp_offset=-3 / threads=6 / sliced_threads=0 / nr=0 / decimate=1 / interlaced=0 / bluray_compat=0 / constrained_intra=0 / bframes=6 / b_pyramid=2 / b_adapt=2 / b_bias=0 / direct=3 / weightb=1 / open_gop=0 / weightp=2 / keyint=250 / keyint_min=23 / scenecut=40 / intra_refresh=0 / rc_lookahead=60 / rc=2pass / mbtree=1 / bitrate=4049 / ratetol=1.0 / qcomp=0.80 / qpmin=10 / qpmax=51 / qpstep=4 / cplxblur=20.0 / qblur=0.5 / ip_ratio=1.40 / aq=1:1.00
Язык                             : English
Аудио #1
Идентификатор                    : 2
Формат                           : AC-3
Формат/Информация                : Audio Coding 3
Профиль формата                  : Dolby Digital
Расширение режима                : CM (complete main)
Идентификатор кодека             : A_AC3
Продолжительность                : 2 ч. 5 м.
Вид битрейта                     : Постоянный
Битрейт                          : 192 Кбит/сек
Канал(ы)                         : 2 канала(ов)
Расположение каналов             : Front: L R
Частота                          : 48,0 КГц
Битовая глубина                  : 16 бит
Метод сжатия                     : С потерями
Задержка видео                   : 13 мс.
Размер потока                    : 173 Мбайт (4%)
Язык                             : Russian
Аудио #2
Идентификатор                    : 3
Формат                           : AC-3
Формат/Информация                : Audio Coding 3
Профиль формата                  : Dolby Digital
Расширение режима                : CM (complete main)
Идентификатор кодека             : A_AC3
Продолжительность                : 2 ч. 5 м.
Вид битрейта                     : Постоянный
Битрейт                          : 192 Кбит/сек
Канал(ы)                         : 2 канала(ов)
Расположение каналов             : Front: L R
Частота                          : 48,0 КГц
Битовая глубина                  : 16 бит
Метод сжатия                     : С потерями
Задержка видео                   : 13 мс.
Размер потока                    : 173 Мбайт (4%)
Язык                             : Ukrainian
Текст #1
Идентификатор                    : 4
Формат                           : VobSub
Режим смешивания                 : zlib
Идентификатор кодека             : S_VOBSUB
Идентификатор кодека/Информация  : The same subtitle format used on DVDs
Язык                             : Russian
Текст #2
Идентификатор                    : 5
Формат                           : VobSub
Режим смешивания                 : zlib
Идентификатор кодека             : S_VOBSUB
Идентификатор кодека/Информация  : The same subtitle format used on DVDs
Язык                             : English
Меню
00:00:00.000                     : en:Chapter 01
00:04:15.922                     : en:Chapter 02
00:06:43.653                     : en:Chapter 03
00:17:16.201                     : en:Chapter 04
00:22:55.123                     : en:Chapter 05
00:38:53.914                     : en:Chapter 06
00:44:39.218                     : en:Chapter 07
00:53:41.843                     : en:Chapter 08
00:57:47.922                     : en:Chapter 09
01:04:54.974                     : en:Chapter 10
01:07:12.903                     : en:Chapter 11
01:11:41.755                     : en:Chapter 12
01:23:18.451                     : en:Chapter 13
01:30:05.441                     : en:Chapter 14
01:38:33.908                     : en:Chapter 15
01:44:40.732                     : en:Chapter 16
01:54:38.621                     : en:Chapter 17
01:59:32.790                     : en:Chapter 18
02:05:54.296                     : en:Chapter 19

Скриншоты

     
     

_________________
Человек – это канат, натянутый между животным и сверхчеловеком, – канат над пропастью.
В человеке ценно то, что он мост, а не цель. Фридрих Ницше


Last edited by Delia on 2011-10-29 17:06; edited 5 times in total
Other forum [Profile] [PM]
Display posts from previous:    
Reply to topic

The time now is: Today 08:24

All times are GMT + 3 Hours



You cannot post new topics in this forum
You cannot reply to topics in this forum
You cannot edit your posts in this forum
You cannot delete your posts in this forum
You cannot vote in polls in this forum
You cannot attach files in this forum
You cannot download files in this forum