Today is a free download without charge Download

Gekijouban Macross F: Sayonara no Tsubasa / Macross Frontier: The Wings of Goodbye / Макросс Фронтир (фильм второй) [2013, MV] BDRip 1080p Raw+Rus

Reply to topic
 
Author
Message

UndegraundMen ®

Longevity: 8 years 11 months

Posts: 25145

Торрент-статистика

Post 20-Oct-2013 21:12

[Quote]

Gekijouban Macross F: Sayonara no Tsubasa / Macross Frontier: The Wings of Goodbye / Макросс Фронтир (фильм второй)- Жанр: приключения, фантастика, романтика, меха
Тип: полнометражный фильм
Продолжительность: 01:54:21
Премьера: 26.02.2011
Автор: Кавамори Сёдзи
Режиссер: Кавамори Сёдзи
Студия: -Информационные ссылки: AniDB || World Art || MAL || ANN-Релиз от: AniFilm
Перевод: advokat
Озвучивание: Мулентий, Муневра, Lali, Near, E-Rotic, Стефан, MAVI, Korin, KroshkaRu, EVA, Акварелька, Трина Дубовицкая, NIKITOS, Azazel, BalFor, MezIdA, Mukuro
Тайминг и работа со звуком: Мулентий-Описание:
Человечество славится во вселенной тем, что не падает духом и выживает при любых обстоятельствах, будь то техногенные катастрофы или космические войны. В XXI веке люди, получив опыт и технологии иных цивилизаций, устремились к ядру Галактики в поисках нового дома. Гигантские корабли, целые летучие материки, составили основу эскадр, несущих к звездам миллионы поселенцев. И тут выяснилось, что самый страшный враг космопроходцев – не черные дыры, таинственные излучения или злобные пришельцы, а банальная скука! Для рядовых граждан перелеты между рассеянными островками человечества малодоступны, но избранные перемещаются свободно. И вот на звездный флот Макросс Фронтир с далекого флота Гэлакси прибывает одна из них - великая певица Шерил Ном.
Появление Шерил и ее первый концерт запускают лавину событий, где тайны прошлого переплетаются с загадками настоящего, и гибель снова грозит всей человеческой цивилизации. Кто такая Шерил – ангел или демон, ведь на сцене она легко принимает любой из этих образов? Как она связана со странной девушкой Ранкой Ли, которая значит куда больше, чем кажется? Сможет ли решить головоломку Альто Саотомэ – бывший артист, волею судьбы ставший воином и пилотом? События первого фильма дилогии – настоящий ураганный видеоклип, отражающий саму суть вселенной Макросса!© Hollow, World Art-Качество: BDRip
Формат: MKV
Видео: x264 (8 bit) 1920x1080, ~4000 kbps, 23.976 fps [DECAY]
Аудио: DTS, 1510 kbps, 48.0 kHz, 6 ch
Аудио: AC-3, 448 kbps, 48.0 kHz, 6 ch
Аудио: AC-3, 224 kbps, 48.0 kHz, 2 ch
Субтитры: ASS, Встроенные, Полные [Antravoco & GMC]
Переводчик: advokat | Редактор: pantsurevolution | Оформитель: nismo-

Тех. параметры:

Код:
General
Format                                   : Matroska
Format version                           : Version 2
File size                                : 8.01 GiB
Duration                                 : 1h 54mn
Overall bit rate mode                    : Variable
Overall bit rate                         : 10.0 Mbps
Encoded date                             : UTC 2013-10-18 20:51:49
Writing application                      : mkvmerge v3.3.0 ('Language') built on Mar 24 2010 14:59:24
Writing library                          : libebml v0.8.0 + libmatroska v0.9.0
Attachment                               : Imported font from [н•њмѓ›-Raws] Macross Frontier the Movie II - Sayonara no Tsubasa (BD 1920x1080 x264 AAC).ass / Imported font from [н•њмѓ›-Raws] Macross Frontier the Movie II - Sayonara no Tsubasa (BD 1920x1080 x264 AAC).ass / Imported font from [н•њмѓ›-Raws] Macross Frontier the Movie II - Sayonara no Tsubasa (BD 1920x1080 x264 AAC).ass / Imported font from [н•њмѓ›-Raws] Macross Frontier the Movie II - Sayonara no Tsubasa (BD 1920x1080 x264 AAC).ass
Video
ID                                       : 1
Format                                   : AVC
Format/Info                              : Advanced Video Codec
Format profile                           : [url=mailto:[email protected]][email protected][/url]
Format settings, CABAC                   : Yes
Format settings, ReFrames                : 3 frames
Codec ID                                 : V_MPEG4/ISO/AVC
Duration                                 : 1h 54mn
Bit rate mode                            : Variable
Bit rate                                 : 8 000 Kbps
Maximum bit rate                         : 14.0 Mbps
Width                                    : 1 920 pixels
Height                                   : 1 080 pixels
Display aspect ratio                     : 16:9
Frame rate mode                          : Constant
Frame rate                               : 23.976 fps
Color space                              : YUV
Chroma subsampling                       : 4:2:0
Bit depth                                : 8 bits
Scan type                                : Progressive
Bits/(Pixel*Frame)                       : 0.161
Stream size                              : 6.11 GiB (76%)
Title                                    : Macross Frontier - Sayonara no Tsubasa
Writing library                          : x264 core 118 r2085 8a62835
Encoding settings                        : cabac=1 / ref=4 / deblock=1:0:0 / analyse=0x3:0x113 / me=tesa / subme=11 / psy=1 / psy_rd=1.00:0.00 / mixed_ref=1 / me_range=12 / chroma_me=1 / trellis=2 / 8x8dct=1 / cqm=0 / deadzone=21,11 / fast_pskip=0 / chroma_qp_offset=-2 / threads=18 / sliced_threads=0 / slices=4 / nr=0 / decimate=1 / interlaced=0 / bluray_compat=1 / constrained_intra=0 / bframes=3 / b_pyramid=1 / b_adapt=2 / b_bias=0 / direct=3 / weightb=1 / open_gop=1 / weightp=1 / keyint=24 / keyint_min=2 / scenecut=40 / intra_refresh=0 / rc_lookahead=24 / rc=abr / mbtree=1 / bitrate=8000 / ratetol=1.0 / qcomp=0.60 / qpmin=10 / qpmax=25 / qpstep=4 / vbv_maxrate=14000 / vbv_bufsize=14500 / nal_hrd=vbr / ip_ratio=1.40 / aq=1:1.00
Language                                 : Japanese
Default                                  : Yes
Forced                                   : Yes
Audio #1
ID                                       : 2
Format                                   : AC-3
Format/Info                              : Audio Coding 3
Mode extension                           : CM (complete main)
Format settings, Endianness              : Big
Codec ID                                 : A_AC3
Duration                                 : 1h 54mn
Bit rate mode                            : Constant
Bit rate                                 : 448 Kbps
Channel count                            : 6 channels
Channel positions                        : Front: L C R, Side: L R, LFE
Sampling rate                            : 48.0 KHz
Bit depth                                : 16 bits
Compression mode                         : Lossy
Stream size                              : 366 MiB (4%)
Title                                    : Russian 5.1 AniFilm (Бубляж)
Language                                 : Russian
Default                                  : Yes
Forced                                   : Yes
Audio #2
ID                                       : 3
Format                                   : AC-3
Format/Info                              : Audio Coding 3
Mode extension                           : CM (complete main)
Format settings, Endianness              : Big
Codec ID                                 : A_AC3
Duration                                 : 1h 54mn
Bit rate mode                            : Constant
Bit rate                                 : 224 Kbps
Channel count                            : 2 channels
Channel positions                        : Front: L R
Sampling rate                            : 48.0 KHz
Bit depth                                : 16 bits
Compression mode                         : Lossy
Stream size                              : 183 MiB (2%)
Title                                    : Russian 2.0 AniFilm (Бубляж)
Language                                 : Russian
Default                                  : No
Forced                                   : No
Audio #3
ID                                       : 5
Format                                   : DTS
Format/Info                              : Digital Theater Systems
Mode                                     : 16
Format settings, Endianness              : Big
Codec ID                                 : A_DTS
Duration                                 : 1h 54mn
Bit rate mode                            : Constant
Bit rate                                 : 1 509 Kbps
Channel count                            : 6 channels
Channel positions                        : Front: L C R, Side: L R, LFE
Sampling rate                            : 48.0 KHz
Bit depth                                : 16 bits
Compression mode                         : Lossy
Delay relative to video                  : 11ms
Stream size                              : 1.21 GiB (15%)
Title                                    : Japanese 5.1 DTS
Language                                 : Japanese
Default                                  : No
Forced                                   : No
Text
ID                                       : 4
Format                                   : ASS
Codec ID                                 : S_TEXT/ASS
Codec ID/Info                            : Advanced Sub Station Alpha
Compression mode                         : Lossless
Title                                    : Russian Sub (Advokat,pantsurevolution,nismo)
Language                                 : Russian
Default                                  : No
Forced                                   : No

Комментарии:

Данный релиз сделан проектом AniFilm.Tv при участии войсеров из других групп, таких как SHIZA, Sem&ko... Релиз сделан на манер Бубляжа, то есть мы постарались сделать так что оригинальный голос отсутствует полностью. Возможны небольшие косяки и артефакты в звуке, без этого увы никуда.
Мы рады представить Вам наш релиз.
ПРИЯТНОГО ПРОСМОТРА!!!
-            -Время раздачи: До первых сидов
Other forum [Profile] [PM]
Display posts from previous:    
Reply to topic

The time now is: Today 17:20

All times are GMT + 3 Hours



You cannot post new topics in this forum
You cannot reply to topics in this forum
You cannot edit your posts in this forum
You cannot delete your posts in this forum
You cannot vote in polls in this forum
You cannot attach files in this forum
You cannot download files in this forum