Today is a free download without charge Download

Светлячок и Росинка (Юрий Бутырин) [1978 г., мультфильм, сказка, DVDRip]

Reply to topic
 
Author
Message

Omen ®

Longevity: 7 years 11 months

Posts: 181087

Торрент-статистика

Post 20-Oct-2013 00:49

[Quote]

Светлячок и РосинкаСтрана: СССР
Жанр: мультфильм, сказка
Продолжительность: 00:09:20
Год выпуска: 1978
Выпущено: Беларусьфильм
Режиссёр: Юрий Бутырин
Русские субтитры: нетОписание:Добрый и красочный мультфильм по мотивам сказки Максима Танка.
В ночную пору, когда все обитатели леса видят сладкие сны, просыпается маленький Светлячок. Он выходит из дома и блуждает по тёмному лесу, зажигая вокруг себя огоньки, чтобы лесные зверята, которым не спится, могли ориентироваться в темноте и не заблудились. Светлячок искренне радуется далёким звёздам в ночном небе и с улыбкой наблюдает за ними, а порой и разговаривает с Луной и звёздами.
А когда приходит утро, усталый и сонный Светлячок отправляется к себе домой, задувая по пути зажжённые ранее огоньки, после чего укладывается спать до следующего вечера. Но однажды, уже собравшись лечь в постель, Светлячок заметил огонёк, который, как ему показалось, он забыл погасить. Прибежав на место, он с изумлением увидел, что в первых лучиках солнца сверкает вовсе не огонёк, а маленькая капелька росы. В этой капельке он увидел и своё отображение. Удивлению Светлячка предела не было – он тут же забрал сверкающую росинку к себе домой, но там, увы, она светиться перестала… Как же удалось Светлячку подружиться со своей необычной гостьей?
В мультфильме звучит песня «Светлячок и Росинка».

Режиссёр и команда

Режиссёр Юрий Бутырин
сценарист: Юрий Бутырин
художник-постановщик: Вячеслав Тарасов
аниматоры: С. Иванов, Валерий Козлов, Жанна Корякина, Р. Домбровская, А. Горулев, Н. Прохорова, А. Стасюлевич
композитор: Леонид Захлевный
оператор: Юрий Мильтнер
звукооператор: Сендэр Шухман
Песню исполняют: Регина Домбровская, С. Иванов
Качество: DVDRip
Формат: AVI
Видео: 720x544 (1.32:1), 25 fps, XviD build 64 ~2353 kbps avg, 0.24 bit/pixel
Аудио: 48 kHz, AC3 Dolby Digital, 2/0 (L,R) ch, ~192 kbps
Субтитры: отсутствуют

Подробные технические данные

ОбщееПолное имя : D:\Мульты\Svetl'achok_i_rosinka.aviФормат : AVIФормат/Информация : Audio Video InterleaveРазмер файла : 171 МбайтПродолжительность : 9 м. 20 с.Общий поток : 2555 Кбит/секПрограмма кодирования : VirtualDubMod 1.5.10.2 (build 2540/release)Библиотека кодирования : VirtualDubMod build 2540/release
ВидеоИдентификатор : 0Формат : MPEG-4 VisualПрофиль формата : Advanced [email protected]Параметр BVOP формата : 2Параметр QPel формата : НетПараметр GMC формата : Без точки переходаПараметр матрицы формата : ВыборочнаяИдентификатор кодека : XVIDИдентификатор кодека/Подсказка : XviDПродолжительность : 9 м. 20 с.Битрейт : 2353 Кбит/секШирина : 720 пикселейВысота : 544 пикселяСоотношение сторон : 4:3Частота кадров : 25,000 кадров/секЦветовое пространство : YUVСубдискретизация насыщенности : 4:2:0Битовая глубина : 8 битТип развёртки : ПрогрессивнаяМетод сжатия : С потерямиБит/(Пиксели*Кадры) : 0.240Размер потока : 157 Мбайт (92%)Библиотека кодирования : XviD 64
АудиоИдентификатор : 1Формат : AC-3Формат/Информация : Audio Coding 3Расширение режима : CM (complete main)Идентификатор кодека : 2000Продолжительность : 9 м. 20 с.Вид битрейта : ПостоянныйБитрейт : 192 Кбит/секКаналы : 2 каналаРасположение каналов : Front: L RЧастота : 48,0 КГцБитовая глубина : 16 битМетод сжатия : С потерямиРазмер потока : 12,8 Мбайт (8%)Выравнивание : Разделение по промежуткамПродолжительность промежутка : 40 мс. (1,00 видеокадр)Время предзагрузки промежутка : 500 мс.
Subtitles: Not Present

Скриншоты

-
Other forum [Profile] [PM]
Display posts from previous:    
Reply to topic

The time now is: Today 07:08

All times are GMT + 3 Hours



You cannot post new topics in this forum
You cannot reply to topics in this forum
You cannot edit your posts in this forum
You cannot delete your posts in this forum
You cannot vote in polls in this forum
You cannot attach files in this forum
You cannot download files in this forum