Today is a free download without charge Download

Сказки-невелички (Алексей Папшин) [1979 г., мультфильм, DVB-AVC]

Reply to topic
 
Author
Message

Omen ®

Longevity: 7 years 11 months

Posts: 181087

Торрент-статистика

Post 20-Oct-2013 00:49

[Quote]

Сказки-невелички
Жанр: мультфильм
Год выпуска: 1979
Продолжительность: 00:15:14
Режиссёр: Алексей Папшин
Описание: мультфильм , состоящий из трех частей: "Медвежка-сладкоежка", "Зайчишка-хвастунишка" и "Неблагодарный козлёнок" ... (Для малышей)
Доп. информация:

Релиз группы:
Качество видео: DVB
Формат видео: MPEG-TS
Видео: MPEG4 Video (H264), [email protected] (4:3), анаморф, 25 fps, 5400 kbps
Аудио: MPEG Audio, 2 сh, 48 kHz, 192 kbps
Трансляция спутникового канала:

MediaInfo

D:\Сказки-невелички. (1979)_DVB by SLuMeP.ts
General #1
ID : 1 (0x1)
Complete name : D:\Сказки-невелички. (1979)_DVB by SLuMeP.ts
Format : MPEG-TS
File size : 637 MiB
Duration : 15mn 14s
Overall bit rate : 5 840 Kbps
Video #2271
ID : 2271 (0x8DF)
Menu ID : 1 (0x1)
Format : AVC
Format/Info : Advanced Video Codec
Format profile : [email protected]
Format settings, CABAC : Yes
Format settings, ReFrames : 3 frames
Codec ID : 27
Duration : 15mn 14s
Bit rate : 5 357 Kbps
Width : 720 pixels
Height : 576 pixels
Display aspect ratio : 4:3
Frame rate : 25.000 fps
Standard : Component
Color space : YUV
Chroma subsampling : 4:2:0
Bit depth : 8 bits
Scan type : Interlaced
Scan order : Top Field First
Bits/(Pixel*Frame) : 0.517
Stream size : 584 MiB (92%)
Color primaries : BT.470-6 System B, BT.470-6 System G, BT.601-6 625, BT.1358 625, BT.1700 625 PAL, BT.1700 625 SECAM
Transfer characteristics : BT.470-6 System B, BT.470-6 System G
Matrix coefficients : BT.470-6 System B, BT.470-6 System G, BT.601-6 625, BT.1358 625, BT.1700 625 PAL, BT.1700 625 SECAM, IEC 61966-2-4 601
Audio #2272
ID : 2272 (0x8E0)
Menu ID : 1 (0x1)
Format : MPEG Audio
Format version : Version 1
Format profile : Layer 2
Codec ID : 3
Duration : 15mn 14s
Bit rate mode : Constant
Bit rate : 192 Kbps
Channel(s) : 2 channels
Sampling rate : 48.0 KHz
Compression mode : Lossy
Delay relative to video : -40ms
Stream size : 20.9 MiB (3%)
Language : Russian

Скриншоты

Other forum [Profile] [PM]
Similar theme
Forum Topic Author Torrent Replies Last Post
./templates/default/images/folder_dl.gif Детская литература Толстой, Андерсен, Братья Гримм и другие авторы. | Детские аудио сказки на DVD (5 из 7) [2007] [MP3] Omen
0 | 1

1 | 1737

0

2011-07-07 17:41
Nugeiro Latest
Display posts from previous:    
Reply to topic

The time now is: Today 14:28

All times are GMT + 3 Hours



You cannot post new topics in this forum
You cannot reply to topics in this forum
You cannot edit your posts in this forum
You cannot delete your posts in this forum
You cannot vote in polls in this forum
You cannot attach files in this forum
You cannot download files in this forum