Today is a free download without charge Download

Капитан Алатристе / Alatriste (Агустин Диас Янес) [2006 г., драма, приключения, военный, биография, история, ВDRip720р]

Reply to topic
 
Author
Message

Delia ®

Gender:

Longevity: 10 years

Posts: 1821

Торрент-статистика

Post 12-Oct-2011 22:18

[Quote]

Капитан АлатристеAlatriste Год выпуска: 2006
Страна: Испания
Жанр: драма, приключения, военный, биография, история
Продолжительность: 02:25:02
Перевод: Дублированный
Режиссер: Агустин Диас Янес
Продюссер: Альваро Аугустин, Антонио Карденал, Белен Атьенца,
Сценарий: Агустин Диас Янес, Артуро Переc-Реверте
В ролях: Вигго Мортенсен, Елена Анайя, Унакс Угальде, Эдуард Фернандес, Эдуардо Норьега, Ариадна Хиль, Хуан Эчанове, Хавьер Камара, Антонио Дечент, Бланка Портильо
Описание: Время и место действия — Испания семнадцатого века, эпоха правления Филиппа Четвертого. Этим слабым, подверженным чужому влиянию монархом, с легкостью манипулирует его развращенный, полный интриг двор, где всем заправляет влиятельный граф Ольварес. В этой империи, которая неуклонно движется к своему закату, и разворачиваются приключения Диего Алатристе, гордого солдата на службе Его Величества во Фландрии, а в мирное время — наемника в Мадриде и Севилье. Вместе с этими персонажем мы попадем в мир интриг и предательств, дуэлей и битв, ненависти и любви, разыгранных на фоне удивительно точно реконструированной эпохи.
Качество: ВDRip720р
Формат: MKV
Видео кодек: H.264
Аудио кодек: AC3
Видео: English, 4549 Кбит/сек, 1280*688 (1,860), в 24,000 кадр/сек, AVC ([email protected])
Аудио: Russian, 448 Кбит/сек, 48,0 КГц, 16 бит, 6 канала(ов), AC-3
Субтитры:Russian, English (VobSub)

MI:

Код:
Общее
Уникальный идентификатор         : 222303441698514854027449536932046978370 (0xA73E15E40857CABB874BAEE89F603D42)
Полное имя                       : E:\торрент\Alatriste  (2006)BDRip720p.mkv
Формат                           : Matroska
Размер файла                     : 5,06 Гбайт
Продолжительность                : 2 ч. 25 м.
Общий поток                      : 4997 Кбит/сек
Дата кодирования                 : UTC 2011-10-12 18:27:39
Программа кодирования            : mkvmerge v5.0.0 ('Die Wahre Liebe') built on Sep 25 2011 20:33:49
Библиотека кодирования           : libebml v1.2.2 + libmatroska v1.3.0
Видео
Идентификатор                    : 1
Формат                           : AVC
Формат/Информация                : Advanced Video Codec
Профиль формата                  : [email protected]
Параметр CABAC формата           : Да
Параметр ReFrames формата        : 9 кадры
Идентификатор кодека             : V_MPEG4/ISO/AVC
Продолжительность                : 2 ч. 25 м.
Битрейт                          : 4549 Кбит/сек
Ширина                           : 1280 пикс.
Высота                           : 688 пикс.
Соотношение сторон               : 1,860
Частота кадров                   : 24,000 кадр/сек
Цветовое пространство            : YUV
Подвыборка цветности             : 4:2:0
Битовая глубина                  : 8 бит
Тип развёртки                    : Прогрессивная
Бит/(Пиксели*Кадры)              : 0.215
Размер потока                    : 4,51 Гбайт (89%)
Библиотека кодирования           : x264 core 118 r2085 8a62835
Настройки программы              : cabac=1 / ref=9 / deblock=1:-2:-2 / analyse=0x3:0x133 / me=umh / subme=9 / psy=1 / psy_rd=1.10:0.15 / mixed_ref=1 / me_range=32 / chroma_me=1 / trellis=2 / 8x8dct=1 / cqm=0 / deadzone=21,11 / fast_pskip=0 / chroma_qp_offset=-3 / threads=6 / sliced_threads=0 / nr=0 / decimate=1 / interlaced=0 / bluray_compat=0 / constrained_intra=0 / bframes=6 / b_pyramid=2 / b_adapt=2 / b_bias=0 / direct=3 / weightb=1 / open_gop=0 / weightp=2 / keyint=250 / keyint_min=23 / scenecut=40 / intra_refresh=0 / rc_lookahead=60 / rc=2pass / mbtree=1 / bitrate=4549 / ratetol=1.0 / qcomp=0.80 / qpmin=2 / qpmax=51 / qpstep=4 / cplxblur=20.0 / qblur=0.5 / ip_ratio=1.40 / aq=1:1.00
Язык                             : English
Аудио
Идентификатор                    : 2
Формат                           : AC-3
Формат/Информация                : Audio Coding 3
Расширение режима                : CM (complete main)
Идентификатор кодека             : A_AC3
Продолжительность                : 2 ч. 25 м.
Вид битрейта                     : Постоянный
Битрейт                          : 448 Кбит/сек
Канал(ы)                         : 6 канала(ов)
Расположение каналов             : Front: L C R, Side: L R, LFE
Частота                          : 48,0 КГц
Битовая глубина                  : 16 бит
Метод сжатия                     : С потерями
Размер потока                    : 465 Мбайт (9%)
Язык                             : Russian
Текст #1
Идентификатор                    : 3
Формат                           : VobSub
Режим смешивания                 : zlib
Идентификатор кодека             : S_VOBSUB
Идентификатор кодека/Информация  : The same subtitle format used on DVDs
Язык                             : Russian
Текст #2
Идентификатор                    : 4
Формат                           : VobSub
Режим смешивания                 : zlib
Идентификатор кодека             : S_VOBSUB
Идентификатор кодека/Информация  : The same subtitle format used on DVDs
Язык                             : English
Меню
00:00:00.000                     : en:Chapter 01
00:09:07.875                     : en:Chapter 02
00:16:10.166                     : en:Chapter 03
00:21:08.125                     : en:Chapter 04
00:27:24.083                     : en:Chapter 05
00:32:14.208                     : en:Chapter 06
00:39:07.041                     : en:Chapter 07
00:44:55.041                     : en:Chapter 08
00:49:57.125                     : en:Chapter 09
00:56:31.166                     : en:Chapter 10
01:04:10.041                     : en:Chapter 11
01:08:02.541                     : en:Chapter 12
01:15:30.750                     : en:Chapter 13
01:19:40.082                     : en:Chapter 14
01:24:00.125                     : en:Chapter 15
01:31:35.125                     : en:Chapter 16
01:37:57.041                     : en:Chapter 17
01:46:07.375                     : en:Chapter 18
01:52:08.583                     : en:Chapter 19
01:57:10.000                     : en:Chapter 20
02:03:50.333                     : en:Chapter 21
02:09:14.000                     : en:Chapter 22
02:14:25.166                     : en:Chapter 23
02:17:09.540                     : en:Chapter 24

Скриншоты

     
     

_________________
Человек – это канат, натянутый между животным и сверхчеловеком, – канат над пропастью.
В человеке ценно то, что он мост, а не цель. Фридрих Ницше
Other forum [Profile] [PM]
Display posts from previous:    
Reply to topic

The time now is: Today 03:03

All times are GMT + 3 Hours



You cannot post new topics in this forum
You cannot reply to topics in this forum
You cannot edit your posts in this forum
You cannot delete your posts in this forum
You cannot vote in polls in this forum
You cannot attach files in this forum
You cannot download files in this forum