Today is a free download without charge Download

Discovery: Из Египта. Око за око / Out of Egypt (2009) SATRip

Reply to topic
 
Author
Message

UndegraundMen ®

Longevity: 7 years 7 months

Posts: 25145

Торрент-статистика

Post 16-Oct-2013 23:02

[Quote]

Discovery: Из Египта. Око за око / Out of Egypt (2009) SATRip - Режиссер / Телекомпания: Discovery
Русское название: Из Египта
Оригинальное название: Out of Egypt
Год выпуска: 2009
Жанр: Документальный, научно-популярный, исследования, познавательный, история
Выпущено: США, MMIX Discovery Communications, LLC
Описание:
Человеческие жертвоприношения, нанесения увечий, пытки и войны. Все во имя одного или многих богов. Религия жестока всегда в лице тьмы. Почему поиск духовного смысла так часто приводит к священному насилию? Об этом и о многом другом Вы узнаете из данного фильма.
Режиссер: Давид Фрид
Перевод: Профессиональный одноголосый
Продолжительность: ~ 00:43:41
Видеокодек: XVID
Битрейт видео: ~1507 kb/s
Размер кадра: 720 x 400
Качество видео: SATRip
Аудиокодек: MP3, 2ch.
Битрейт аудио: 112 kb/s

MediaInfo

Формат : AVI
Формат/Информация : Audio Video Interleave
Размер файла : 510 Мбайт
Продолжительность : 43 м.
Режим общего битрейта : Переменный
Общий поток : 1631 Кбит/сек
Программа кодирования : VirtualDubMod 1.5.10.3 | www.virtualdub-fr.org || (build 2550/release)
Библиотека кодирования : VirtualDubMod build 2550/release
Видео
Идентификатор : 0
Формат : MPEG-4 Visual
Профиль формата : Advanced [email protected]
Параметр BVOP формата : 1
Параметр QPel формата : Нет
Параметр GMC формата : Без точки перехода
Параметр матрицы формата : Default (H.263)
Идентификатор кодека : XVID
Идентификатор кодека/Подсказка : XviD
Продолжительность : 43 м.
Битрейт : 1507 Кбит/сек
Ширина : 720 пикселей
Высота : 400 пикселей
Соотношение сторон : 16:9
Частота кадров : 25,000 кадров/сек
Цветовое пространство : YUV
Субдискретизация насыщенности : 4:2:0
Битовая глубина : 8 бит
Тип развёртки : Прогрессивная
Метод сжатия : С потерями
Бит/(Пиксели*Кадры) : 0.209
Размер потока : 471 Мбайт (92%)
Библиотека кодирования : XviD 1.2.1 (UTC 2008-12-04)
Аудио
Идентификатор : 1
Формат : MPEG Audio
Версия формата : Version 1
Профиль формата : Layer 3
Режим : Joint stereo
Расширение режима : MS Stereo
Идентификатор кодека : 55
Идентификатор кодека/Подсказка : MP3
Продолжительность : 43 м.
Вид битрейта : Переменный
Битрейт : 112 Кбит/сек
Номинальный битрейт : 128 Кбит/сек
Каналы : 2 канала
Частота : 44,1 КГц
Метод сжатия : С потерями
Размер потока : 35,0 Мбайт (7%)
Выравнивание : Соединение по промежуткам
Продолжительность промежутка : 26 мс. (0,65 видеокадр)
Время предзагрузки промежутка : 488 мс.
Библиотека кодирования : LAME3.99
Настройки программы : -m j -V 4 -q 2 -lowpass 17 --abr 128
Скриншоты:          
Other forum [Profile] [PM]
Display posts from previous:    
Reply to topic

The time now is: Today 12:54

All times are GMT + 3 Hours



You cannot post new topics in this forum
You cannot reply to topics in this forum
You cannot edit your posts in this forum
You cannot delete your posts in this forum
You cannot vote in polls in this forum
You cannot attach files in this forum
You cannot download files in this forum