Today is a free download without charge Download

Свистать всех наверх (Исаак Магитон)[1970., Детский, Приключения, Семейный] SATRip

Reply to topic
 
Author
Message

sashau ®

Gender:

Longevity: 9 years 6 months

Posts: 3497

Торрент-статистика

Post 16-Oct-2013 19:09

[Quote]

Свистать всех наверх - Год выпуска: 1970
Жанр: Детский, Приключения, Семейный
Описание фильма:
Маленький мальчик Женька, которого, как и других малышей, терроризирует хулиган Борис с двумя своими дружками, ждет приезда родного дяди, бывалого морского волка. Дядя, дескать, приедет, заступится, наведет порядок, отомстит обидчикам. Выясняется однако, что дядя – тоже мальчик, Миша Ерохин, всего на год-другой старше своего затюканного племянничка. Хотя к морю дядя имеет самое прямое отношение: он яхтсмен. Выясняется, что рассчитывать-то не на кого и что нужно защищаться, нужно определяться в этой сложной жизни самим, без чьей бы то ни было помощи. Поскольку рассчитывать не на кого, этому самому «дяде» приходится стать много сильнее себя, приходится в считанные часы и дни дорасти до настоящего морского волка, до сильного надежного мужика. Парень оказывается на высоте, оказывается взаправду взрослым. Миша снарядил парусную лодку, подобрал экипаж и вскоре был готов к морской экспедиции. Но Борис со своей компанией, которых Миша обошел своим вниманием, решили сорвать путешествие романтиков…
Режиссер: Исаак Магитон
Актеры: Алексей Сапарев, Александр Елистратов, Дая Смирнова, Ольга Маркина, Лариса Данилина, Виталий Чижиков, Василий Михалин, Сергей Михалин, Александр Ясенев
Продолжительность: 01:09:54
Качество видео: SATRip

Видеокодек: MPEG-2
Битрейт видео: ~1888 Кбит/сек
Размер кадра: [email protected]
Аудиокодек: AC3 2.0
Битрейт аудио: 192 Кбит/сек

MediaInfo:

Общее
Полное имя : W:\Интересно\Свистать всех наверх!\Свистать всех наверх (1970) SATRip.mpg
Формат : MPEG-PS
Размер файла : 1,04 Гбайт
Продолжительность : 1 ч. 9 м.
Режим общего битрейта : Переменный
Общий поток : 2122 Кбит/сек
Видео
Идентификатор : 224 (0xE0)
Формат : MPEG Video
Версия формата : Version 2
Профиль формата : [email protected]
Параметр BVOP формата : Да
Параметр матрицы формата : Выборочная
Параметр GOP формата : M=3, N=15
Продолжительность : 1 ч. 9 м.
Вид битрейта : Переменный
Битрейт : 1888 Кбит/сек
Максимальный битрейт : 2000 Кбит/сек
Ширина : 720 пикселей
Высота : 576 пикселей
Соотношение сторон : 16:9
Частота кадров : 25,000 кадров/сек
Стандарт вещания : PAL
Цветовое пространство : YUV
Субдискретизация насыщенности : 4:2:0
Битовая глубина : 8 бит
Тип развёртки : Чересстрочная
Порядок развёртки : Верхнее поле первое
Метод сжатия : С потерями
Бит/(Пиксели*Кадры) : 0.182
Временной код первого кадра : 00:00:00:00
Оригинал временного кода : Group of pictures header
Размер потока : 944 Мбайт (89%)
Аудио
Идентификатор : 189 (0xBD)-128 (0x80)
Формат : AC-3
Формат/Информация : Audio Coding 3
Расширение режима : CM (complete main)
Параметр Endianness формата : Big
Режим смешивания : DVD-Video
Продолжительность : 1 ч. 9 м.
Вид битрейта : Постоянный
Битрейт : 192 Кбит/сек
Каналы : 2 канала
Расположение каналов : Front: L R
Частота : 48,0 КГц
Битовая глубина : 16 бит
Метод сжатия : С потерями
Задержка видео : -80 мс.
Размер потока : 96,0 Мбайт (9%)
Скриншоты:
         
         
Other forum [Profile] [PM]
Display posts from previous:    
Reply to topic

The time now is: Today 01:28

All times are GMT + 3 Hours



You cannot post new topics in this forum
You cannot reply to topics in this forum
You cannot edit your posts in this forum
You cannot delete your posts in this forum
You cannot vote in polls in this forum
You cannot attach files in this forum
You cannot download files in this forum