Today is a free download without charge Download

Маруся - богуславка (Нина Василенко) [1966, эпос, SATRip]

Reply to topic
 
Author
Message

Omen ®

Longevity: 7 years 11 months

Posts: 181087

Торрент-статистика

Post 16-Oct-2013 13:55

[Quote]

Маруся - богуславка
Страна: СССР
Жанр: эпос
Продолжительность: 00:09:46
Год выпуска: 1966
Русские субтитры: нет
Режиссёр: Нина Василенко
Роли озвучивали: А. Архипов
Описание: Мультипликационный фильм, рассказывающий о легендарной героине украинского эпоса Марусе Богуславке. Угнанная на «туретчину» и попав в гарем к турецкому султану, она помогла бежать своим землякам, погибнув при этом сама.
Семпл: http://yadi.sk/d/XiFJQiHmB3YW3
Качество: SATRip
Формат: AVI
Видео: XVID 640х496 25.000 fps 1 682 Kbps
Аудио: MP3 48.0 KHz 1 channel 96.0 Kbps
Субтитры: отсутствуют

Подробные технические данные

GeneralComplete name : C:\Users\Саша\Downloads\marusja.boguslavka.aviFormat : AVIFormat/Info : Audio Video InterleaveFile size : 125 MiBDuration : 9mn 46sOverall bit rate : 1 788 KbpsWriting application : VirtualDubMod 1.5.10.2 (build 2542/release)Writing library : VirtualDubMod build 2542/release
VideoID : 0Format : MPEG-4 VisualFormat profile : Advanced [email protected] settings, BVOP : YesFormat settings, QPel : NoFormat settings, GMC : No warppointsFormat settings, Matrix : Default (MPEG)Codec ID : XVIDCodec ID/Hint : XviDDuration : 9mn 46sBit rate : 1 682 KbpsWidth : 640 pixelsHeight : 496 pixelsDisplay aspect ratio : 1.290Frame rate : 25.000 fpsResolution : 8 bitsColorimetry : 4:2:0Scan type : ProgressiveBits/(Pixel*Frame) : 0.212Stream size : 118 MiB (94%)Writing library : XviD 1.2.0SMP (UTC 2006-01-08)
AudioID : 1Format : MPEG AudioFormat version : Version 1Format profile : Layer 3Codec ID : 55Codec ID/Hint : MP3Duration : 9mn 46sBit rate mode : ConstantBit rate : 96.0 KbpsChannel(s) : 1 channelSampling rate : 48.0 KHzStream size : 6.71 MiB (5%)Alignment : Split accross interleavesInterleave, duration : 40 ms (1.00 video frame)Interleave, preload duration : 500 msWriting library : LAME3.97 (beta)

Скриншоты



Other forum [Profile] [PM]
Display posts from previous:    
Reply to topic

The time now is: Today 15:38

All times are GMT + 3 Hours



You cannot post new topics in this forum
You cannot reply to topics in this forum
You cannot edit your posts in this forum
You cannot delete your posts in this forum
You cannot vote in polls in this forum
You cannot attach files in this forum
You cannot download files in this forum