Today is a free download without charge Download

Discovery. Чужая планета / Alien Planet (2005) HDTVRip [H.264/720p-LQ]

Reply to topic
 
Author
Message

UndegraundMen ®

Longevity: 7 years 7 months

Posts: 25145

Торрент-статистика

Post 15-Oct-2013 23:00

[Quote]

Discovery. Чужая планета / Alien Planet (2005) HDTVRip [H.264/720p-LQ]- Режиссер / Телекомпания: Пьер де Ласпинос / Discovery Channel
Страна: США
Год выпуска: 2005
Жанр: Документально-фантастический, компьютерная анимация
Актеры: Стивен Хокинг, Мичио Каку, Дж. Крейг Вентер, Джорж Лукас
Описание: В недалеком будущем, когда человечество выработало новые технологии, искусственный интеллект продвинулся достаточно, чтобы быть посланным в космос искать инопланетную жизнь. Ученые обнаружили планету Дарвин IV, в 6,5 световых годах от Земли, возможно, там есть жизнеспособная окружающая среда, с двумя солнцами. Они посылают для исследования искусственные интеллекты, Ньютон и Да Винчи…
Продолжительность: 01:30:58
Перевод: Одноголосый закадровый (профессиональный)
Формат файла: MKV
Видеокодек: MPEG-4 AVC/H.264
Битрейт видео: ~3000 Кбит/с
Размер кадра: 1280 x 720
Качество видео: HDTVRip [720p-LQ]
Аудио: AC3, 6 ch, 448 Кбит/с

MediaInfo

General
Unique ID : 239158575666697634187592233172607104287 (0xB3EC4427DE68916E86E17CE40CBEF51F)
Complete name : I:\Discovery.2005.Alien.Planet.HDTVRip.720p.mkv
Format : Matroska
Format version : Version 2
File size : 2.19 GiB
Duration : 1h 30mn
Overall bit rate : 3 443 Kbps
Encoded date : UTC 2011-08-26 08:09:31
Writing application : mkvmerge v4.5.0 ('Speed of Light') сборка от Feb 1 2011 02:10:32
Writing library : libebml v1.2.0 + libmatroska v1.1.0
Video
ID : 1
Format : AVC
Format/Info : Advanced Video Codec
Format profile : [url=mailto:[email protected]][email protected][/url]
Format settings, CABAC : Yes
Format settings, ReFrames : 8 frames
Muxing mode : Header stripping
Codec ID : V_MPEG4/ISO/AVC
Duration : 1h 30mn
Bit rate : 2 994 Kbps
Width : 1 280 pixels
Height : 720 pixels
Display aspect ratio : 16:9
Frame rate mode : Constant
Frame rate : 23.976 fps
Color space : YUV
Chroma subsampling : 4:2:0
Bit depth : 8 bits
Scan type : Progressive
Bits/(Pixel*Frame) : 0.135
Stream size : 1.86 GiB (85%)
Writing library : x264 core 56 svn-671
Encoding settings : cabac=1 / ref=5 / deblock=1:-2:0 / analyse=0x3:0x133 / me=umh / subme=7 / brdo=1 / mixed_ref=1 / me_range=16 / chroma_me=1 / trellis=1 / 8x8dct=1 / cqm=0 / deadzone=21,11 / chroma_qp_offset=0 / threads=6 / nr=0 / decimate=1 / mbaff=0 / bframes=3 / b_pyramid=1 / b_adapt=1 / b_bias=0 / direct=1 / wpredb=1 / bime=1 / keyint=240 / keyint_min=24 / scenecut=40(pre) / rc=2pass / bitrate=2994 / ratetol=1.0 / rceq='blurCplx^(1-qComp)' / qcomp=0.60 / qpmin=10 / qpmax=51 / qpstep=4 / cplxblur=20.0 / qblur=0.5 / ip_ratio=1.40 / pb_ratio=1.30
Language : English
Default : Yes
Forced : No
Audio
ID : 2
Format : AC-3
Format/Info : Audio Coding 3
Mode extension : CM (complete main)
Format settings, Endianness : Big
Muxing mode : Header stripping
Codec ID : A_AC3
Duration : 1h 30mn
Bit rate mode : Constant
Bit rate : 448 Kbps
Channel(s) : 6 channels
Channel positions : Front: L C R, Side: L R, LFE
Sampling rate : 48.0 KHz
Bit depth : 16 bits
Compression mode : Lossy
Stream size : 292 MiB (13%)
Default : Yes
Forced : No
Скриншоты:
         
         
Other forum [Profile] [PM]
Display posts from previous:    
Reply to topic

The time now is: Today 07:22

All times are GMT + 3 Hours



You cannot post new topics in this forum
You cannot reply to topics in this forum
You cannot edit your posts in this forum
You cannot delete your posts in this forum
You cannot vote in polls in this forum
You cannot attach files in this forum
You cannot download files in this forum