Today is a free download without charge Download

Discovery: Война от первого лица / Ultimate Warfare (Серия №8) (2012) SATRip

Reply to topic
 
Author
Message

UndegraundMen ®

Longevity: 7 years 7 months

Posts: 25145

Торрент-статистика

Post 14-Oct-2013 17:32

[Quote]

Discovery: Война от первого лица / Ultimate Warfare (Серия №8) (2012) SATRip - Режиссер / Телекомпания: Discovery
Русское название: Война от первого лица
Оригинальное название: Ultimate Warfare
Год выпуска: 2013
Жанр: Документальный, история, война, реконструкция
Выпущено: Discovery Channel
Описание:
Новый сериал «Война от первого лица» позволяет зрителям побывать на полях известных сражений и увидеть реальные боевые действия глазами простых солдат. Discovery Channel предлагает вам свежий обзор самых интересных боевых конфликтов новейшей истории, позволяя взглянуть на военные действия под новым, необычным углом. С помощью передовых технологий и компьютерного моделирования каждый эпизод программы в подробностях воссоздает картину известных сражений, а комментируют тактические действия ведущие специалисты по военному делу и опытные ветераны, участвовавшие во многих конфликтах. «Война от первого лица» пытается полностью спроектировать любое сражение, превратив его в увлекательный и захватывающий рассказ. Тактические уловки, отважные герои, современное вооружение – на глазах зрителей все это превращается в увлекательные истории о солдатских буднях.
Режиссёр: Криспин Рис
В выпуске: 8. Сражение за Окинаву (неполная)/ Okinawa: Island Fortress
Текст читал: Владислав Букин
Озвучено: Студия Кириллица
Перевод: Профессиональный одноголосый
Продолжительность: ~ 00:32:55
Видеокодек: DviX
Битрейт видео: ~1450 kb/s
Размер кадра: 720 x 400
Качество видео: SATRip
Аудиокодек: MP3, 2ch.
Битрейт аудио: 128 kb/s

MediaInfo

Формат : AVI
Формат/Информация : Audio Video Interleave
Размер файла : 374 Мбайт
Продолжительность : 32 м.
Общий поток : 1588 Кбит/сек
Библиотека кодирования : Boilsoft Joiner build 2411/release
Видео
Идентификатор : 0
Формат : MPEG-4 Visual
Профиль формата : Advanced [email protected]
Параметр BVOP формата : 2
Параметр QPel формата : Нет
Параметр GMC формата : Без точки перехода
Параметр матрицы формата : Default (MPEG)
Идентификатор кодека : DX50
Идентификатор кодека/Подсказка : DivX 5
Продолжительность : 32 м.
Битрейт : 1450 Кбит/сек
Ширина : 704 пикселя
Высота : 400 пикселей
Соотношение сторон : 16:9
Частота кадров : 25,000 кадров/сек
Цветовое пространство : YUV
Субдискретизация насыщенности : 4:2:0
Битовая глубина : 8 бит
Тип развёртки : Прогрессивная
Метод сжатия : С потерями
Бит/(Пиксели*Кадры) : 0.206
Размер потока : 341 Мбайт (91%)
Библиотека кодирования : XviD 73
Аудио
Идентификатор : 1
Формат : MPEG Audio
Версия формата : Version 1
Профиль формата : Layer 3
Идентификатор кодека : 55
Идентификатор кодека/Подсказка : MP3
Продолжительность : 32 м.
Вид битрейта : Постоянный
Битрейт : 128 Кбит/сек
Каналы : 2 канала
Частота : 44,1 КГц
Метод сжатия : С потерями
Размер потока : 30,1 Мбайт (8%)
Выравнивание : Разделение по промежуткам
Продолжительность промежутка : 40 мс. (1,00 видеокадр)
Время предзагрузки промежутка : 500 мс.
Библиотека кодирования : LAME3.99r
Настройки программы : -m s -V 4 -q 2 -lowpass 17 -b 128
Скриншоты:          
Other forum [Profile] [PM]
Display posts from previous:    
Reply to topic

The time now is: Today 16:51

All times are GMT + 3 Hours



You cannot post new topics in this forum
You cannot reply to topics in this forum
You cannot edit your posts in this forum
You cannot delete your posts in this forum
You cannot vote in polls in this forum
You cannot attach files in this forum
You cannot download files in this forum