Today is a free download without charge Download

Подставное тело / Body Double (Брайан Де Пальма) [1984 г., триллер, драма, криминал, детектив, HDTVRip720p]

Reply to topic
 
Author
Message

Delia ®

Gender:

Longevity: 9 years 6 months

Posts: 1821

Торрент-статистика

Post 11-Oct-2011 06:49

[Quote]

Подставное тело Body Double Год выпуска: 1984
Страна: США
Жанр: триллер, драма, криминал, детектив
Продолжительность: 01:49:33
Перевод: Профессиональный (двухголосый)
Режиссер: Брайан Де Пальма
В ролях: Крейг Уоссон, Мелани Гриффит, Грегг Генри, Дебора Шелтон, Гай Бойд, Деннис Франц, Дэвид Хэскелл, Ребекка Стэнли, Эл Израэл, Дуглас Уорхит
Описание: Актер Джейк снимается на вторых ролях в фильмах ужасов про вампиров. Однажды он возвращается домой после съемок фильма и обнаруживает свою подружку с другим мужчиной. Джейк вынужден искать себе новое жилье.
Его знакомый Фрэнк, тоже актер, предлагает Джейку пожить у него, пока он будет в отъезде, а заодно и присмотреть за домом. Чтобы Джейк не скучал в одиночестве, Фрэнк рассказывает ему о маленьком «домашнем» развлечении.
В здании напротив живет «любимая» соседка Фрэнка, сексапильная красавица Глория, которая каждый вечер раздевается у незанавешенного и хорошо освещенного окна. Увидев бесплатный стриптиз своими глазами, Джейк мечтает познакомиться лично с прекрасной Глорией.
Знакомство происходит при необычных обстоятельствах, но в один из вечеров Джейк вместо полюбившегося шоу видит через окно, как Глорию убивают...
Но это еще не все. Кто-то нанимает актрису, чтобы она заменила Глорию и продолжила импровизированное шоу «за стеклом».
Качество:HDTVRip720p
Формат: MKV
Видео кодек: H.264
Аудио кодек: AC3
Видео: English, 4150 Кбит/сек, 1280*720 (16:9), в 25,000 кадр/сек, AVC ([email protected])
Аудио: Russian, 384 Кбит/сек, 48,0 КГц, 16 бит, 6 канала(ов), AC-3
Аудио: English, 320 Кбит/сек, 48,0 КГц, 16 бит, 6 канала(ов), AC-3
Субтитры:Russian, English (VobSub)
Отдельно:
Russian: 48 kHz, AC3, 3/2 (L,C,R,l,r) + LFE ch, ~384.00 kbps avg |Одноголосый закадровый, Г.Либергал|
Russian: 48 kHz, AC3, 3/2 (L,C,R,l,r) + LFE ch, ~384.00 kbps avg |Одноголосый закадровый, С.Визгунов|

MI:

Код:
Общее
Уникальный идентификатор         : 232309572821818042811788478563607399254 (0xAEC5323E860BA375A28F3E46C2E04B56)
Полное имя                       : E:\торрент\Body Double (1984)HDTVRip720p\Body Double (1984) HDTVRip720p.mkv
Формат                           : Matroska
Размер файла                     : 3,72 Гбайт
Продолжительность                : 1 ч. 49 м.
Общий поток                      : 4859 Кбит/сек
Дата кодирования                 : UTC 2011-10-09 20:50:21
Программа кодирования            : mkvmerge v5.0.0 ('Die Wahre Liebe') built on Sep 25 2011 20:33:49
Библиотека кодирования           : libebml v1.2.2 + libmatroska v1.3.0
Видео
Идентификатор                    : 1
Формат                           : AVC
Формат/Информация                : Advanced Video Codec
Профиль формата                  : [email protected]
Параметр CABAC формата           : Да
Параметр ReFrames формата        : 8 кадры
Идентификатор кодека             : V_MPEG4/ISO/AVC
Продолжительность                : 1 ч. 49 м.
Битрейт                          : 4150 Кбит/сек
Ширина                           : 1280 пикс.
Высота                           : 720 пикс.
Соотношение сторон               : 16:9
Частота кадров                   : 25,000 кадр/сек
Цветовое пространство            : YUV
Подвыборка цветности             : 4:2:0
Битовая глубина                  : 8 бит
Тип развёртки                    : Прогрессивная
Бит/(Пиксели*Кадры)              : 0.180
Размер потока                    : 3,11 Гбайт (84%)
Библиотека кодирования           : x264 core 118 r2085 8a62835
Настройки программы              : cabac=1 / ref=8 / deblock=1:-3:-3 / analyse=0x3:0x133 / me=umh / subme=9 / psy=1 / psy_rd=1.15:0.15 / mixed_ref=1 / me_range=32 / chroma_me=1 / trellis=2 / 8x8dct=1 / cqm=0 / deadzone=21,11 / fast_pskip=0 / chroma_qp_offset=-3 / threads=6 / sliced_threads=0 / nr=0 / decimate=1 / interlaced=0 / bluray_compat=0 / constrained_intra=0 / bframes=6 / b_pyramid=2 / b_adapt=2 / b_bias=0 / direct=3 / weightb=1 / open_gop=0 / weightp=2 / keyint=250 / keyint_min=23 / scenecut=40 / intra_refresh=0 / rc_lookahead=60 / rc=2pass / mbtree=1 / bitrate=4150 / ratetol=1.0 / qcomp=0.80 / qpmin=10 / qpmax=51 / qpstep=4 / cplxblur=20.0 / qblur=0.5 / ip_ratio=1.40 / aq=1:1.00
Язык                             : English
Аудио #1
Идентификатор                    : 2
Формат                           : AC-3
Формат/Информация                : Audio Coding 3
Расширение режима                : CM (complete main)
Идентификатор кодека             : A_AC3
Продолжительность                : 1 ч. 49 м.
Вид битрейта                     : Постоянный
Битрейт                          : 384 Кбит/сек
Канал(ы)                         : 6 канала(ов)
Расположение каналов             : Front: L C R, Side: L R, LFE
Частота                          : 48,0 КГц
Битовая глубина                  : 16 бит
Метод сжатия                     : С потерями
Размер потока                    : 301 Мбайт (8%)
Язык                             : Russian
Аудио #2
Идентификатор                    : 3
Формат                           : AC-3
Формат/Информация                : Audio Coding 3
Расширение режима                : CM (complete main)
Идентификатор кодека             : A_AC3
Продолжительность                : 1 ч. 49 м.
Вид битрейта                     : Постоянный
Битрейт                          : 320 Кбит/сек
Канал(ы)                         : 6 канала(ов)
Расположение каналов             : Front: L C R, Side: L R, LFE
Частота                          : 48,0 КГц
Битовая глубина                  : 16 бит
Метод сжатия                     : С потерями
Размер потока                    : 251 Мбайт (7%)
Язык                             : English
Текст #1
Идентификатор                    : 4
Формат                           : VobSub
Режим смешивания                 : zlib
Идентификатор кодека             : S_VOBSUB
Идентификатор кодека/Информация  : The same subtitle format used on DVDs
Язык                             : Russian
Текст #2
Идентификатор                    : 5
Формат                           : VobSub
Режим смешивания                 : zlib
Идентификатор кодека             : S_VOBSUB
Идентификатор кодека/Информация  : The same subtitle format used on DVDs
Язык                             : English
Меню
00:00:00.000                     : en:Chapter 01
00:09:28.099                     : en:Chapter 02
00:19:01.160                     : en:Chapter 03
00:29:02.150                     : en:Chapter 04
00:37:53.000                     : en:Chapter 05
00:47:24.230                     : en:Chapter 06
00:57:03.080                     : en:Chapter 07
01:07:53.150                     : en:Chapter 08
01:18:39.170                     : en:Chapter 09
01:29:05.240                     : en:Chapter 10
01:34:27.020                     : en:Chapter 11
01:43:03.140                     : en:Chapter 12
01:49:28.070                     : en:Chapter 13

Скриншоты

       
       

_________________
Человек – это канат, натянутый между животным и сверхчеловеком, – канат над пропастью.
В человеке ценно то, что он мост, а не цель. Фридрих Ницше
Other forum [Profile] [PM]
Display posts from previous:    
Reply to topic

The time now is: Today 18:16

All times are GMT + 3 Hours



You cannot post new topics in this forum
You cannot reply to topics in this forum
You cannot edit your posts in this forum
You cannot delete your posts in this forum
You cannot vote in polls in this forum
You cannot attach files in this forum
You cannot download files in this forum