Today is a free download without charge Download

Пара гнедых (Сергей Крутин) [2009, Мелодрама, DVD9] R5

Reply to topic
 
Author
Message

Omen ®

Longevity: 8 years 10 months

Posts: 181086

Торрент-статистика

Post 10-Oct-2011 20:21

[Quote]

Пара Гнедых-
Русское название: Пара Гнедых
Год выпуска: 2009
Производство: Россия
Жанр: Мелодрама
Субтитры: Отсутствуют- -Дата мировой премьеры: 22 января 2010-Режиссер: Сергей Крутин
Актеры: Ирина Купченко, Михаил Жигалов, Агния Кузнецова, Ярослав Жалнин, Юрий Степанов-Описание фильма:
На лето к бабушке Лидии Петровне, которая живет на море, приезжает внучка-студентка Ирина. Между ними непростые отношения: они редко видятся, так как отец Ирины (сын Лидии Петровны) давно умер, а между невесткой и свекровью отношения не сложились с самого начала.На первый взгляд бабушка и внучка очень разные. Ирину смешит старомодная деликатность Лидии Петровны, а ту, в свою очередь, тревожит прямолинейность и категоричность внучки. Но постепенно между ними возникают душевная близость, взаимопонимание, и внучка начинает меняться под влиянием бабушки. Лидия Петровна пробуждает в юной Ирине женственность, мудрость, деликатность к чужим чувствам и стремлениям. Более того, она незаметно помогает ей рассмотреть в соседском пареньке того мужчину, с которым можно прожить всю жизнь.
-Дополнительно: Анонсы
Продолжительность: 01:33:33
Качество видео: DVD9-Видеокодек: MPEG-2
Битрейт видео: ~ 5 991 Kbps
Размер кадра: PAL 16:9 (720x576)@(1024x576)
Аудиокодек: AC3 2.0
Битрейт аудио: 224 Kbps- -

DVDInfo

Код:
Title: Para.gnedyh.2009.O.DVD_[/*spam*/]
Size: 4.74 Gb ( 4 965 702,00 KBytes ) - DVD-9
Enabled regions: 1, 2, 3, 4, 5, 6, 7, 8
VTS_01 :
  Play Length: 00:00:15
  Video: PAL 4:3 (720x576) VBR
  Audio:
      Not specified (Dolby AC3, 2 ch)
VTS_02 :
  Play Length: 00:00:08
  Video: PAL 16:9 (720x576) VBR, Auto Letterboxed
  Audio:
      Not specified (Dolby AC3, 2 ch)
VTS_03 :
  Play Length: 01:33:33
  Video: PAL 16:9 (720x576) VBR, Auto Letterboxed
  Audio:
      Russian (Dolby AC3, 2 ch)
VTS_04 :
  Play Length: 00:01:47
  Video: PAL 16:9 (720x576) VBR, Auto Letterboxed
  Audio:
      Not specified (Dolby AC3, 2 ch)
VTS_05 :
  Play Length: 00:01:12
  Video: PAL 16:9 (720x576) VBR, Auto Letterboxed
  Audio:
      Not specified (LinearPCM, 2 ch)
VTS_06 :
  Play Length: 00:01:30
  Video: PAL 16:9 (720x576) VBR, Auto Letterboxed
  Audio:
      Not specified (Dolby AC3, 2 ch)
VTS_07 :
  Play Length: 00:02:34
  Video: PAL 16:9 (720x576) VBR, Auto Letterboxed
  Audio:
      Not specified (Dolby AC3, 2 ch)
VTS_08 :
  Play Length: 00:02:03
  Video: PAL 16:9 (720x576) VBR, Auto Letterboxed
  Audio:
      Not specified (Dolby AC3, 2 ch)
VTS_09 :
  Play Length: 00:01:46
  Video: PAL 16:9 (720x576) VBR, Auto Letterboxed
  Audio:
      Not specified (Dolby AC3, 2 ch)
VTS_10 :
  Play Length: 00:02:04
  Video: PAL 16:9 (720x576) VBR, Auto Letterboxed
  Audio:
      Not specified (Dolby AC3, 2 ch)
-

MediaInfo

Код:
General
Complete name                    : E:\торрент\Para.gnedyh.2009.O.DVD_VIDEO_TS\VTS_03_1.VOB
Format                           : MPEG-PS
File size                        : 1 024 MiB
Duration                         : 22mn 34s
Overall bit rate                 : 6 341 Kbps
Video
ID                               : 224 (0xE0)
Format                           : MPEG Video
Format version                   : Version 2
Format profile                   : [email protected]
Format settings, BVOP            : Yes
Format settings, Matrix          : Default
Format settings, GOP             : M=3, N=12
Duration                         : 22mn 34s
Bit rate mode                    : Variable
Bit rate                         : 5 991 Kbps
Nominal bit rate                 : 7 500 Kbps
Width                            : 720 pixels
Height                           : 576 pixels
Display aspect ratio             : 16:9
Frame rate                       : 25.000 fps
Standard                         : PAL
Color space                      : YUV
Chroma subsampling               : 4:2:0
Bit depth                        : 8 bits
Scan type                        : Progressive
Compression mode                 : Lossy
Bits/(Pixel*Frame)               : 0.578
Stream size                      : 967 MiB (94%)
Audio
ID                               : 128 (0x80)
Format                           : AC-3
Format/Info                      : Audio Coding 3
Mode extension                   : CM (complete main)
Duration                         : 22mn 34s
Bit rate mode                    : Constant
Bit rate                         : 224 Kbps
Channel(s)                       : 2 channels
Channel positions                : Front: L R
Sampling rate                    : 48.0 KHz
Bit depth                        : 16 bits
Compression mode                 : Lossy
Stream size                      : 36.2 MiB (4%)
Menu
-

Скриншоты меню

     
Скриншоты:
       


Last edited by Omen on 2011-12-06 14:51; edited 1 time in total
Other forum [Profile] [PM]
Display posts from previous:    
Reply to topic

The time now is: Today 14:24

All times are GMT + 3 Hours



You cannot post new topics in this forum
You cannot reply to topics in this forum
You cannot edit your posts in this forum
You cannot delete your posts in this forum
You cannot vote in polls in this forum
You cannot attach files in this forum
You cannot download files in this forum