Today is a free download without charge Download

Человек-амфибия (Геннадий Казанский, Владимир Чеботарев) [1961, СССР, Фантастика / Мелодрама, BDRip 720p] + Sub Eng + Original Rus

Reply to topic
 
Author
Message

Omen ®

Longevity: 8 years 10 months

Posts: 181086

Торрент-статистика

Post 13-Oct-2013 20:45

[Quote]

Человек-амфибия
Страна: СССР
Студия: Ленфильм
Жанр: Фантастика / Мелодрама
Год выпуска: 1961
Продолжительность: 01:36:21
Перевод: Не требуется
Cубтитры: английские
Оригинальная аудиодорожка: русский
Режиссер: Геннадий Казанский, Владимир Чеботарев
В ролях: Владимир Коренев, Анастасия Вертинская, Михаил Козаков, Николай Симонов, Владлен Давыдов, Анатолий Смиранин, Анатолий Иванов, Валерий Кудряшов, Николай Кузьмин
Описание: Однажды талантливый ученый доктор Сальватор спас жизнь маленькому мальчику, пересадив ему жабры акулы. С этого дня Ихтиандр, так назвал своего приемного сына ученый, мог плавать под водой, как рыба, нырять на любую глубину, но ему было тяжело подолгу находиться на суше... Годы спустя по тихому морскому городу поползли слухи о странном существе, наводящем ужас на всех рыбаков, o «морском дьяволе». В это же самое время в городе появляется молодой человек, который мало общается с людьми и прекрасно плавает. Он знакомится с дочерью бедного ныряльщика за жемчугом, красавицей Гутиэре и без памяти в нее влюбляется...
Доп. информация: Полная реставрация изображения и звука. Исходные киноматериалы подготовлены Госфильмофондом России. Покадровая цифровая реставрация изображения, ремастеринг звука и авторинг проведены объединением «Крупный план».
Сэмпл: http://multi-up.com/912890
Тип релиза: BDRip 720p
Контейнер: MKV
Видео: 8914 Кбит/сек, 988 x 720 (1.372), в 23.976 кадр/сек, AVC (High L4.1)
Аудио: 640 Кбит/сек 48,0 КГц, 16 бит, 6 каналов, AC-3

MediaInfo

Общее
Уникальный идентификатор : 190072571021678448949378034908672042263 (0x8EFEA546F108D6308952038467CC2517)
Полное имя : G:\Человек-амфибия 1961, 720p.mkv
Формат : Matroska
Версия формата : Version 2
Размер файла : 6,56 Гбайт
Продолжительность : 1 ч. 36 м.
Общий поток : 9747 Кбит/сек
Название фильма : Человек-амфибия 1961, 720p
Дата кодирования : UTC 2013-05-24 20:47:03
Программа кодирования : mkvmerge v6.1.0 ('Old Devil') built on Mar 2 2013 14:32:37
Библиотека кодирования : libebml v1.3.0 + libmatroska v1.4.0
Видео
Идентификатор : 1
Формат : AVC
Формат/Информация : Advanced Video Codec
Профиль формата : [email protected]
Параметр CABAC формата : Да
Параметр ReFrames формата : 12 кадров
Идентификатор кодека : V_MPEG4/ISO/AVC
Продолжительность : 1 ч. 36 м.
Битрейт : 8914 Кбит/сек
Ширина : 988 пикс.
Высота : 720 пикс.
Соотношение сторон : 1,372
Частота кадров : 23,976 кадр/сек
Цветовое пространство : YUV
Подвыборка цветности : 4:2:0
Битовая глубина : 8 бит
Тип развёртки : Прогрессивная
Бит/(Пиксели*Кадры) : 0.523
Размер потока : 6,00 Гбайт (91%)
Заголовок : Encode by TayTO
Библиотека кодирования : x264 core 129 r2245 bc13772
Настройки программы : cabac=1 / ref=12 / deblock=1:-3:-3 / analyse=0x3:0x113 / me=tesa / subme=11 / psy=1 / psy_rd=1.15:0.00 / mixed_ref=1 / me_range=16 / chroma_me=1 / trellis=2 / 8x8dct=1 / cqm=0 / deadzone=21,11 / fast_pskip=0 / chroma_qp_offset=-2 / threads=12 / lookahead_threads=2 / sliced_threads=0 / nr=0 / decimate=0 / interlaced=0 / bluray_compat=0 / constrained_intra=0 / bframes=7 / b_pyramid=2 / b_adapt=2 / b_bias=0 / direct=3 / weightb=1 / open_gop=0 / weightp=2 / keyint=250 / keyint_min=23 / scenecut=40 / intra_refresh=0 / rc=crf / mbtree=0 / crf=14.0 / qcomp=0.55 / qpmin=0 / qpmax=69 / qpstep=4 / ip_ratio=1.40 / pb_ratio=1.30 / aq=1:0.65
Язык : Russian
Коэффициенты матрицы : BT.709-5, BT.1361, IEC 61966-2-4 709, SMPTE RP177
Аудио
Идентификатор : 2
Формат : AC-3
Формат/Информация : Audio Coding 3
Расширение режима : CM (complete main)
Идентификатор кодека : A_AC3
Продолжительность : 1 ч. 36 м.
Вид битрейта : Постоянный
Битрейт : 640 Кбит/сек
Каналы : 6 каналов
Расположение каналов : Front: L C R, Side: L R, LFE
Частота : 48,0 КГц
Битовая глубина : 16 бит
Метод сжатия : С потерями
Размер потока : 441 Мбайт (7%)
Заголовок : AC3 5.1 @ 640 kbps
Язык : Russian
Текст
Идентификатор : 3
Формат : UTF-8
Идентификатор кодека : S_TEXT/UTF8
Идентификатор кодека/Информация : UTF-8 Plain Text
Язык : English
Меню
00:00:00.000 : en:00:00:00.000
00:03:35.632 : en:00:03:35.632
00:10:10.610 : en:00:10:10.610
00:18:44.415 : en:00:18:44.415
00:23:54.058 : en:00:23:54.058
00:31:00.358 : en:00:31:00.358
00:35:35.842 : en:00:35:35.842
00:42:37.180 : en:00:42:37.180
00:49:00.020 : en:00:49:00.020
00:56:12.286 : en:00:56:12.286
01:00:03.266 : en:01:00:03.266
01:08:54.297 : en:01:08:54.297
01:13:59.977 : en:01:13:59.977
01:20:03.882 : en:01:20:03.882
01:26:44.866 : en:01:26:44.866

Скриншоты

Other forum [Profile] [PM]
Display posts from previous:    
Reply to topic

The time now is: Today 13:32

All times are GMT + 3 Hours



You cannot post new topics in this forum
You cannot reply to topics in this forum
You cannot edit your posts in this forum
You cannot delete your posts in this forum
You cannot vote in polls in this forum
You cannot attach files in this forum
You cannot download files in this forum