Today is a free download without charge Download

Discovery: Северная Америка / North America (Серия №4 ) (2013) HDTVRip

Reply to topic
 
Author
Message

UndegraundMen ®

Longevity: 7 years 7 months

Posts: 25145

Торрент-статистика

Post 13-Oct-2013 17:00

[Quote]

Discovery: Северная Америка / North America (Серия №4 ) (2013) HDTVRip - Режиссер / Телекомпания: Discovery
Русское название: Северная Америка
Оригинальное название: North America
Год выпуска: 2013
Жанр: Документальный, научно-познавательный, путешествие
Выпущено: США, Великобритания, Discovery Channel, Silverback Films
Описание:
Первая самостоятельно подготовленная естественнонаучная программа Discovery «Северная Америка» - это результат путешествий по континенту в течение трех лет от ледяной Аляски до пышных лесов Белиза, от покрытых снегами Скалистых гор до пустынь юго-запада Америки. Она рассказывает о том, что закон «выживает сильнейший» царит на этом огромном континенте посреди опасных территорий и сурового климата.
Режиссёр: Джеймс Мэнфулл, Сара Касс, Макс Саломон
В выпуске: 04. Граница дикой природы / Savage Edge
Побережье Северной Америки - дикий край и волшебный мир, где грация и красота природы порождает жизнь - непостижимую и опасную. Под водой ведется жестокая война за выживание. Вдоль диких берегов континента не прекращается борьба. Животные, рыбы и птицы - все сражаются за свое место в этом суровом, диком краю.
Текст читал: Давид Петросян
Озвучено: Студия Кириллица
Перевод: Одноголосый закадровый
Продолжительность: ~ 00:43:40
Видеокодек: XVID
Битрейт видео: ~1950 kb/s
Размер кадра: 720 x 400
Качество видео: HDTVRip
Аудиокодек: AC-3, 2ch.
Битрейт аудио: 192 kb/s

MediaInfo

Формат : AVI
Формат/Информация : Audio Video Interleave
Размер файла : 672 Мбайт
Продолжительность : 43 м.
Общий поток : 2151 Кбит/сек
Программа кодирования : VirtualDubMod 1.5.10.3 | www.virtualdub-fr.org || (build 2550/release)
Библиотека кодирования : VirtualDubMod build 2550/release
Видео
Идентификатор : 0
Формат : MPEG-4 Visual
Профиль формата : Advanced [email protected]
Параметр BVOP формата : 2
Параметр QPel формата : Нет
Параметр GMC формата : Без точки перехода
Параметр матрицы формата : Default (H.263)
Идентификатор кодека : XVID
Идентификатор кодека/Подсказка : XviD
Продолжительность : 43 м.
Битрейт : 1950 Кбит/сек
Ширина : 720 пикселей
Высота : 400 пикселей
Соотношение сторон : 16:9
Частота кадров : 23,976 кадра/сек
Цветовое пространство : YUV
Субдискретизация насыщенности : 4:2:0
Битовая глубина : 8 бит
Тип развёртки : Прогрессивная
Метод сжатия : С потерями
Бит/(Пиксели*Кадры) : 0.282
Размер потока : 609 Мбайт (91%)
Библиотека кодирования : XviD 1.2.1 (UTC 2008-12-04)
Аудио
Идентификатор : 1
Формат : AC-3
Формат/Информация : Audio Coding 3
Расширение режима : CM (complete main)
Идентификатор кодека : 2000
Продолжительность : 43 м.
Вид битрейта : Постоянный
Битрейт : 192 Кбит/сек
Каналы : 2 канала
Расположение каналов : Front: L R
Частота : 48,0 КГц
Битовая глубина : 16 бит
Метод сжатия : С потерями
Размер потока : 60,0 Мбайт (9%)
Выравнивание : Разделение по промежуткам
Продолжительность промежутка : 42 мс. (1,00 видеокадр)
Время предзагрузки промежутка : 500 мс.
Скриншоты:          
Other forum [Profile] [PM]
Display posts from previous:    
Reply to topic

The time now is: Today 14:14

All times are GMT + 3 Hours



You cannot post new topics in this forum
You cannot reply to topics in this forum
You cannot edit your posts in this forum
You cannot delete your posts in this forum
You cannot vote in polls in this forum
You cannot attach files in this forum
You cannot download files in this forum