Today is a free download without charge Download

Золушка (Надежда Кошеверова, Михаил Шапиро) [1947, мюзикл, фэнтези, мелодрама, комедия, семейный, BDRip1080р]

Reply to topic
 
Author
Message

Delia ®

Gender:

Longevity: 11 years

Posts: 1821

Торрент-статистика

Post 13-Oct-2013 08:44

[Quote]

-Золушка--
Год выпуска: 1947
Страна: СССР
Жанр: мюзикл, фэнтези, мелодрама, комедия, семейный.
Продолжительность: 01:21:50
Перевод: Не требуется
Режиссер: Надежда Кошеверова, Михаил Шапиро
Сценарий: Евгений Шварц
Оператор: Евгений Шапиро
Композитор: Антонио Спадавеккиа
Художник: Николай Акимов, Исаак Махлис, Тамара Левицкая, ...
Монтаж: Валентина Миронова-
В ролях: Янина Жеймо (Золушка), Алексей Консовский (Принц), Эраст Гарин (Король), Фаина Раневская (Мачеха), Елена Юнгер (Анна, дочь мачехи), Тамара Сезеневская (Марьяна, дочь мачехи), Василий Меркурьев (Лесничий, отец Золушки), Александр Румнев (Па Де Труа), Варвара Мясникова (фея), Игорь Клименков (паж)-Описание: Основа сюжета — старинный сказочный мотив о трудолюбивой Золушке, злой мачехе и ленивых сестрах. Разумеется, Шварцем переработанный и оживленный до уровня комедии, в которой есть и просто юмор, и злая сатира.До сих пор этот нежный и добрый фильм продолжает радовать и удивлять больших и маленьких. А вы попробуйте не удивиться тому, что к вам в гости приходит волшебница со своим очаровательным пажом и мановением волшебной палочки превращает ваше рубище в бальное платье, а ваши опорки в хрустальные башмачки. Попробуйте просто и естественно усесться в золоченую тыкву, запряженную мышами, и в этой карете поехать на бал к королю. Попробуйте, наконец, танцевать со сказочным королем и влюбиться в волшебного принца.--
Рейтинг ВКИП: для детей, не достигших возраста шести лет-
Качество: BDRip1080р
Формат: MKV
Видео кодек: H.264 (AVC)
Аудио кодеk: AC3
Видео: 1484x1080 (1.374:1), 23.976 fps, AVC, 13.1 Mbps
Аудио: Аудио #1: AC3, 448 Kbps, 48.0 KHz, 6 ch

--

МедиаИнфо

Код:
General
Unique ID                                : 211123764844472798949202554550895230737 (0x9ED4F543FB68612299621314AA33BF11)
Complete name                            : Zolushka (1947) 1080p.F-HD.mkv
Format                                   : Matroska
Format version                           : Version 4 / Version 2
File size                                : 7.73 GiB
Duration                                 : 1h 21mn
Overall bit rate                         : 13.5 Mbps
Encoded date                             : UTC 2013-10-12 21:25:09
Writing application                      : mkvmerge v6.4.1 ('Omega Point') built on Sep 16 2013 22:05:10
Writing library                          : libebml v1.3.0 + libmatroska v1.4.1
Video
ID                                       : 1
Format                                   : AVC
Format/Info                              : Advanced Video Codec
Format profile                           : [email protected]
Format settings, CABAC                   : Yes
Format settings, ReFrames                : 4 frames
Codec ID                                 : V_MPEG4/ISO/AVC
Duration                                 : 1h 21mn
Bit rate                                 : 13.1 Mbps
Width                                    : 1 484 pixels
Height                                   : 1 080 pixels
Display aspect ratio                     : 1.374
Frame rate mode                          : Constant
Frame rate                               : 23.976 fps
Color space                              : YUV
Chroma subsampling                       : 4:2:0
Bit depth                                : 8 bits
Scan type                                : Progressive
Bits/(Pixel*Frame)                       : 0.340
Stream size                              : 7.32 GiB (95%)
Writing library                          : x264 core 138 r2358kMod 9e941d1
Encoding settings                        : cabac=1 / ref=4 / deblock=1:-3:-3 / analyse=0x3:0x113 / me=umh / subme=10 / psy=1 / fade_compensate=0.00 / psy_rd=1.00:0.07 / mixed_ref=1 / me_range=48 / chroma_me=1 / trellis=2 / 8x8dct=1 / cqm=0 / deadzone=21,11 / fast_pskip=0 / chroma_qp_offset=-3 / threads=6 / lookahead_threads=1 / sliced_threads=0 / nr=0 / decimate=1 / interlaced=0 / bluray_compat=0 / constrained_intra=0 / bframes=8 / b_pyramid=2 / b_adapt=2 / b_bias=0 / direct=3 / weightb=1 / open_gop=0 / weightp=2 / keyint=250 / keyint_min=23 / scenecut=40 / intra_refresh=0 / rc_lookahead=40 / rc=2pass / mbtree=0 / bitrate=13073 / ratetol=1.0 / qcomp=0.50 / qpmin=0 / qpmax=69 / qpstep=4 / cplxblur=20.0 / qblur=0.5 / vbv_maxrate=50000 / vbv_bufsize=62500 / nal_hrd=none / ip_ratio=1.20 / pb_ratio=1.20 / aq=1:0.85
Language                                 : English
Default                                  : Yes
Forced                                   : No
Matrix coefficients                      : BT.709
Audio
ID                                       : 2
Format                                   : AC-3
Format/Info                              : Audio Coding 3
Mode extension                           : CM (complete main)
Format settings, Endianness              : Big
Codec ID                                 : A_AC3
Duration                                 : 1h 21mn
Bit rate mode                            : Constant
Bit rate                                 : 448 Kbps
Channel(s)                               : 6 channels
Channel positions                        : Front: L C R, Side: L R, LFE
Sampling rate                            : 48.0 KHz
Bit depth                                : 16 bits
Compression mode                         : Lossy
Stream size                              : 262 MiB (3%)
Language                                 : Russian
Default                                  : Yes
Forced                                   : No
Menu
00:00:00.000                             : en:00:00:00.000
00:07:04.424                             : en:00:07:04.424
00:12:51.771                             : en:00:12:51.771
00:21:12.855                             : en:00:21:12.855
00:30:46.553                             : en:00:30:46.553
00:37:25.452                             : en:00:37:25.452
00:43:27.605                             : en:00:43:27.605
00:47:19.837                             : en:00:47:19.837
00:50:28.025                             : en:00:50:28.025
01:00:26.623                             : en:01:00:26.623
01:08:01.077                             : en:01:08:01.077
01:13:26.402                             : en:01:13:26.402

Знаете ли Вы, что...

★ На роль короля пробовались и Ю. Толубеев, и К. Адашевский — и каждый был по-своему хорош, но лишь в Гарине обнаружилась та мера эксцентрики и задушевности, которая нужна сказке.
★ Фаина Раневская во время съёмок очень похудела и, гримируясь, безжалостно обращалась со своим лицом. Подтягивала свой многострадальный нос с помощью кусочков газа и лака, запихивала за щеки комочки ваты. Когда её просили не мучить себя, раздражённо отвечала: «Для актрисы не существует никаких неудобств, если это нужно для роли».
★ На момент съёмок Янине Жеймо (Золушка) было 38 лет, Алексею Консовскому (Принц) — 35 лет. Игравший родного отца Золушки Василий Меркурьев всего на пять лет старше Жеймо.

Скриншоты

   
   

_________________
Человек – это канат, натянутый между животным и сверхчеловеком, – канат над пропастью.
В человеке ценно то, что он мост, а не цель. Фридрих Ницше
Other forum [Profile] [PM]
Display posts from previous:    
Reply to topic

The time now is: Today 22:35

All times are GMT + 3 Hours



You cannot post new topics in this forum
You cannot reply to topics in this forum
You cannot edit your posts in this forum
You cannot delete your posts in this forum
You cannot vote in polls in this forum
You cannot attach files in this forum
You cannot download files in this forum