Today is a free download without charge Download

Discovery: Северная Америка. Серия №1 / North America (2013) HDTVRip [H.264/720p]

Reply to topic
 
Author
Message

UndegraundMen ®

Longevity: 7 years 7 months

Posts: 25145

Торрент-статистика

Post 12-Oct-2013 17:00

[Quote]

Discovery: Северная Америка. Серия №1 / North America (2013) HDTVRip [H.264/720p]- Режиссер / Телекомпания: Discovery
Русское название: Северная Америка
Оригинальное название: North America
Год выпуска: 2013
Жанр: Документальный, научно-познавательный, путешествие
Выпущено: США, Великобритания, Discovery Channel, Silverback Films
Описание:
Первая самостоятельно подготовленная естественнонаучная программа Discovery «Северная Америка» - это результат путешествий по континенту в течение трех лет от ледяной Аляски до пышных лесов Белиза, от покрытых снегами Скалистых гор до пустынь юго-запада Америки. Она рассказывает о том, что закон «выживает сильнейший» царит на этом огромном континенте посреди опасных территорий и сурового климата.
Режиссёр: Джеймс Мэнфулл, Сара Касс, Макс Саломон
В выпуске: 01. Родился непокорным / Born to Be Wild
Текст читал: Давид Петросян
Озвучено: Студия Кириллица
Перевод: Одноголосый закадровый
Продолжительность: ~ 00:42:51
Видеокодек: AVC
Битрейт видео: ~3963 kb/s
Размер кадра: 1280 x 720
Качество видео: HDTVRip
Аудиокодек: AC-3, 2ch.
Битрейт аудио: 192 kb/s

MediaInfo

Формат : Matroska
Версия формата : Version 2
Размер файла : 1,27 Гбайт
Продолжительность : 42 м.
Режим общего битрейта : Постоянный
Общий поток : 4239 Кбит/сек
Дата кодирования : UTC 2013-10-06 12:58:44
Программа кодирования : TMPGEnc Video Mastering Works 5 Version. 5.0.6.38
Библиотека кодирования : TMPGEnc Video Mastering Works 5 Version. 5.0.6.38
Видео
Идентификатор : 2
Формат : AVC
Формат/Информация : Advanced Video Codec
Профиль формата : [url=mailto:[email protected]][email protected][/url]
Параметр CABAC формата : Да
Параметр ReFrames формата : 3 кадра
Идентификатор кодека : V_MPEG4/ISO/AVC
Продолжительность : 42 м.
Вид битрейта : Постоянный
Битрейт : 3963 Кбит/сек
Номинальный битрейт : 4250 Кбит/сек / 4250 Кбит/сек
Ширина : 1280 пикселей
Высота : 720 пикселей
Соотношение сторон : 16:9
Частота кадров : 23,976 кадра/сек
Стандарт вещания : NTSC
Цветовое пространство : YUV
Субдискретизация насыщенности : 4:2:0
Битовая глубина : 8 бит
Тип развёртки : Прогрессивная
Бит/(Пиксели*Кадры) : 0.179
Размер потока : 1,19 Гбайт (93%)
Библиотека кодирования : x264 core 114
Настройки программы : cabac=1 / ref=3 / deblock=1:0:0 / analyse=0x3:0x113 / me=hex / subme=7 / psy=1 / psy_rd=1.00:0.00 / mixed_ref=1 / me_range=16 / chroma_me=1 / trellis=1 / 8x8dct=1 / cqm=2 / deadzone=21,11 / fast_pskip=1 / chroma_qp_offset=-2 / threads=6 / sliced_threads=0 / slices=1 / nr=0 / decimate=1 / interlaced=0 / constrained_intra=0 / bframes=3 / b_pyramid=0 / b_adapt=1 / b_bias=0 / direct=1 / weightb=1 / open_gop=0 / weightp=2 / keyint=250 / keyint_min=23 / scenecut=40 / intra_refresh=0 / rc_lookahead=40 / rc=cbr / mbtree=1 / bitrate=4250 / ratetol=1.0 / qcomp=0.60 / qpmin=3 / qpmax=69 / qpstep=4 / vbv_maxrate=4250 / vbv_bufsize=4243 / nal_hrd=cbr / ip_ratio=1.40 / aq=1:1.00
Default : Да
Forced : Нет
Основные цвета : BT.709-5, BT.1361, IEC 61966-2-4, SMPTE RP177
Характеристики трансфера : BT.709-5, BT.1361
Коэффициенты матрицы : BT.709-5, BT.1361, IEC 61966-2-4 709, SMPTE RP177
Аудио
Идентификатор : 1
Формат : AC-3
Формат/Информация : Audio Coding 3
Расширение режима : CM (complete main)
Идентификатор кодека : A_AC3
Продолжительность : 42 м.
Вид битрейта : Постоянный
Битрейт : 192 Кбит/сек
Каналы : 2 канала
Расположение каналов : Front: L R
Частота : 48,0 КГц
Битовая глубина : 16 бит
Метод сжатия : С потерями
Размер потока : 58,9 Мбайт (5%)
Default : Да
Forced : Нет
Скриншоты:          
Other forum [Profile] [PM]
Display posts from previous:    
Reply to topic

The time now is: Today 01:55

All times are GMT + 3 Hours



You cannot post new topics in this forum
You cannot reply to topics in this forum
You cannot edit your posts in this forum
You cannot delete your posts in this forum
You cannot vote in polls in this forum
You cannot attach files in this forum
You cannot download files in this forum