Today is a free download without charge Download

Discovery. Недружелюбная вселенная / Bad Universe (2010) HDTVRip [H.264/720p] [3 серии из 3]

Reply to topic
 
Author
Message

UndegraundMen ®

Longevity: 7 years 7 months

Posts: 25145

Торрент-статистика

Post 12-Oct-2013 11:32

[Quote]

Discovery. Недружелюбная вселенная / Bad Universe (2010) HDTVRip [H.264/720p] [3 серии из 3]- Режиссер / Телекомпания: Гэри Поллак / Discovery
Страна: США
Год выпуска: 2010
Жанр: Документальный, научно-популярный, космос
Описание: Вселенная - это очень опасное место. Здесь отовсюду угрожает опасность. Но кино и поп-культура так своевольно трактовала многие вещи, что большинство из наших знаний о космосе и угрозах, которые он несет для Человечества, оказываются неверными. Когда дело касается Вселенной, незнание - это смерть. В данном цикле, Фил Плейт - "астроном с миссией", будет разбираться с нелепостями в науке в поисках правды. Вы увидите настоящую науку, спрятанную за загадками этой планеты.
Продолжительность: 3x ~00:44:00
Перевод: Одноголосый закадровый (профессиональный)
Формат файла: MKV
Видеокодек: MPEG-4 AVC/H.264
Битрейт видео: ~5 200 Кбит/с
Размер кадра: 1280 x 720
Качество видео: HDTVRip [720p]
Аудио:
1. [русский] AC3, 6 ch, 384 Кбит/с
2. [english] AC3, 6 ch, 384 Кбит/с
Содержание

Серия 1. Астероидный апокалипс / Asteroid Apocalypse

Время уже пошло. Так что же нас ждёт в 2036 году?Скриншоты:
         

Серия 2. Инопланетяне / Aliens

Поиск экстримофилов,как могут выглядеть инопланетяне? Были ли у нас контакты!Скриншоты:
         

Серия 3. Умирающие звезды / Dying Stars

Наше солнце,новые и сверхновые звёзды.Что же ждать в отдалённом будущем?Скриншоты:
         
Скриншоты:
         
         

MediaInfo (параметры всех серий одинаковы)

General
Unique ID : 303666467515232541092726163160605437890 (0xE47408C730782214CABB8D6B14ECAFC2)
Complete name : I:\РЕЛИЗЫ\Bad.Universe.HDTV.720p.(3.iz.3)\s01.Bad.Universe.HDTV.720p.(3.iz.3).mkv
Format : Matroska
Format version : Version 2
File size : 1.85 GiB
Duration : 44mn 12s
Overall bit rate : 5 975 Kbps
Writing application : HandBrake svn3735
Writing library : libmkv 0.6.4.1
Video
ID : 1
Format : AVC
Format/Info : Advanced Video Codec
Format profile : [url=mailto:[email protected]][email protected][/url]
Format settings, CABAC : Yes
Format settings, ReFrames : 4 frames
Codec ID : V_MPEG4/ISO/AVC
Duration : 44mn 12s
Bit rate : 5 200 Kbps
Width : 1 280 pixels
Height : 720 pixels
Display aspect ratio : 16:9
Frame rate mode : Constant
Frame rate : 25.000 fps
Color space : YUV
Chroma subsampling : 4:2:0
Bit depth : 8 bits
Scan type : Progressive
Bits/(Pixel*Frame) : 0.226
Stream size : 1.57 GiB (85%)
Writing library : x264 core 112
Encoding settings : cabac=1 / ref=3 / deblock=1:0:0 / analyse=0x1:0x111 / me=umh / subme=8 / psy=1 / psy_rd=1.00:2.00 / mixed_ref=0 / me_range=16 / chroma_me=1 / trellis=2 / 8x8dct=0 / cqm=0 / deadzone=21,11 / fast_pskip=1 / chroma_qp_offset=-4 / threads=3 / sliced_threads=0 / nr=0 / decimate=1 / interlaced=0 / constrained_intra=0 / bframes=3 / b_pyramid=2 / b_adapt=1 / b_bias=0 / direct=1 / weightb=0 / open_gop=0 / weightp=2 / keyint=250 / keyint_min=25 / scenecut=40 / intra_refresh=0 / rc_lookahead=40 / rc=2pass / mbtree=1 / bitrate=5200 / ratetol=1.0 / qcomp=0.60 / qpmin=3 / qpmax=51 / qpstep=4 / cplxblur=20.0 / qblur=0.5 / ip_ratio=1.40 / aq=1:1.00
Language : English
Default : Yes
Forced : No
Color primaries : BT.709
Transfer characteristics : BT.709
Matrix coefficients : BT.709
Audio #1
ID : 2
Format : AC-3
Format/Info : Audio Coding 3
Mode extension : CM (complete main)
Format settings, Endianness : Big
Codec ID : A_AC3
Duration : 44mn 12s
Bit rate mode : Constant
Bit rate : 384 Kbps
Channel(s) : 6 channels
Channel positions : Front: L C R, Side: L R, LFE
Sampling rate : 48.0 KHz
Bit depth : 16 bits
Compression mode : Lossy
Stream size : 121 MiB (6%)
Language : Russian
Default : Yes
Forced : No
Audio #2
ID : 3
Format : AC-3
Format/Info : Audio Coding 3
Mode extension : CM (complete main)
Format settings, Endianness : Big
Codec ID : A_AC3
Duration : 44mn 12s
Bit rate mode : Constant
Bit rate : 384 Kbps
Channel(s) : 6 channels
Channel positions : Front: L C R, Side: L R, LFE
Sampling rate : 48.0 KHz
Bit depth : 16 bits
Compression mode : Lossy
Stream size : 121 MiB (6%)
Language : English
Default : No
Forced : No
Пожалуйста, не уходите с раздачи - помогите докачать другим. Если понравился релиз - жмите кнопку "Спасибо"!
Other forum [Profile] [PM]
Display posts from previous:    
Reply to topic

The time now is: Today 13:46

All times are GMT + 3 Hours



You cannot post new topics in this forum
You cannot reply to topics in this forum
You cannot edit your posts in this forum
You cannot delete your posts in this forum
You cannot vote in polls in this forum
You cannot attach files in this forum
You cannot download files in this forum