Today is a free download without charge Download

Discovery. Экстремальные боевые искусства / XMA: Xtreme Martial Arts (2003) HDTVRip [H.264/720p]

Reply to topic
 
Author
Message

UndegraundMen ®

Longevity: 7 years 11 months

Posts: 25145

Торрент-статистика

Post 12-Oct-2013 05:00

[Quote]

Discovery. Экстремальные боевые искусства / XMA: Xtreme Martial Arts (2003) HDTVRip [H.264/720p]- Режиссер / Телекомпания: BASE Productions
Страна: США
Год выпуска: 2003
Жанр: Документальный, спорт, единоборства
Актеры: Джонатан Бойд, Мэтт Маллинз, Майкл Чатурантабут, Арнольд Чон, Том Круз, Брен Фостер, Марк Хикс, Минг Лью, Клинтон Мерфи, Джонни Нгуйен, Саймон Ри
Описание: Этот фильм - один из немногих первоклассных документальных фильмов, посвященных боевым искусствам. Он посвящен именно науке боевых искусств, биомеханике и физиологии тела бойца. В нем использованы специальные компьютерные эффекты, которые позволяют зрителю видеть то, что происходит внутри тела бойца во время схватки, как движутся кости и мышцы во время выполнения того или иного движения. Схватки поставлены на высоком профессиональном уровне, а выполнения индивидуальных упражнений вообще завораживают зрителя своей зрелищностью. В фильме Вас ждет встреча с пятикратным чемпионом мира по боевым единоборствам Мэттом Маллинзом и его другом и тренером, семикратным чемпионом мира по боевым единоборствам, Майклом Чатом!
Релиз группы Da Vinchie
Продолжительность: 01:27:40
Перевод: Одноголосый закадровый (профессиональный)
Язык субтитров: русский
Формат файла: MKV
Видеокодек: MPEG-4 AVC/H.264
Битрейт видео: ~4000 Кбит/с
Размер кадра: 1280 x 720
Качество видео: HDTVRip [720p]
Аудио:
1. [русский] AC3, 2 ch, 128 Кбит/с
2. [english] AC3, 6 ch, 384 Кбит/с
ВНИМАНИЕ!
В фильме присутствует несколько небольших отрывков без перевода. Если вы не владеете в достаточной мере английским языком, используйте русские субтитры.

MediaInfo

General
Unique ID : 244089773937391549691377300590985015059 (0xB7A1FB00600597869DAA45120240EF13)
Complete name : I:\РЕЛИЗЫ\Discovery.Xtreme.Martial.Arts.HDTVRip.720p.mkv
Format : Matroska
Format version : Version 2
File size : 2.77 GiB
Duration : 1h 27mn
Overall bit rate : 4 515 Kbps
Movie name : Micropolis.2006.GERMAN.DTS.DOKU.720p.BluRay.x264-TVP
Encoded date : UTC 2011-11-17 17:37:26
Writing application : mkvmerge v3.2.0 ('Beginnings') built on Feb 12 2010 16:46:17
Writing library : libebml v0.7.9 + libmatroska v0.8.1
Video
ID : 1
Format : AVC
Format/Info : Advanced Video Codec
Format profile : [url=mailto:[email protected]][email protected][/url]
Format settings, CABAC : Yes
Format settings, ReFrames : 8 frames
Codec ID : V_MPEG4/ISO/AVC
Duration : 1h 27mn
Bit rate : 4 000 Kbps
Width : 1 280 pixels
Height : 720 pixels
Display aspect ratio : 16:9
Frame rate mode : Constant
Frame rate : 29.970 fps
Color space : YUV
Chroma subsampling : 4:2:0
Bit depth : 8 bits
Scan type : Progressive
Bits/(Pixel*Frame) : 0.145
Stream size : 2.40 GiB (87%)
Writing library : x264 core 64 r973M f473669
Encoding settings : cabac=1 / ref=8 / deblock=1:-3:-3 / analyse=0x3:0x113 / me=umh / subme=7 / psy_rd=1.0:0.0 / brdo=1 / mixed_ref=1 / me_range=30 / chroma_me=1 / trellis=1 / 8x8dct=1 / cqm=2 / deadzone=21,11 / chroma_qp_offset=-2 / threads=6 / nr=0 / decimate=1 / mbaff=0 / bframes=5 / b_pyramid=1 / b_adapt=1 / b_bias=0 / direct=1 / wpredb=1 / bime=1 / keyint=250 / keyint_min=25 / scenecut=40(pre) / rc=2pass / bitrate=4000 / ratetol=7.0 / qcomp=0.60 / qpmin=10 / qpmax=51 / qpstep=4 / cplxblur=20.0 / qblur=0.5 / ip_ratio=1.40 / pb_ratio=1.30 / aq=1:1.10
Language : English
Default : Yes
Forced : No
Audio #1
ID : 2
Format : AC-3
Format/Info : Audio Coding 3
Mode extension : CM (complete main)
Format settings, Endianness : Big
Codec ID : A_AC3
Duration : 1h 27mn
Bit rate mode : Constant
Bit rate : 128 Kbps
Channel(s) : 2 channels
Channel positions : Front: L R
Sampling rate : 48.0 KHz
Bit depth : 16 bits
Compression mode : Lossy
Stream size : 80.3 MiB (3%)
Title : XBI
Language : Russian
Default : Yes
Forced : Yes
Audio #2
ID : 3
Format : AC-3
Format/Info : Audio Coding 3
Mode extension : CM (complete main)
Format settings, Endianness : Big
Codec ID : A_AC3
Duration : 1h 27mn
Bit rate mode : Constant
Bit rate : 384 Kbps
Channel(s) : 6 channels
Channel positions : Front: L C R, Side: L R, LFE
Sampling rate : 48.0 KHz
Bit depth : 16 bits
Compression mode : Lossy
Stream size : 241 MiB (9%)
Title : XMA
Language : English
Default : No
Forced : No
Text
ID : 4
Format : UTF-8
Codec ID : S_TEXT/UTF8
Codec ID/Info : UTF-8 Plain Text
Title : sub_by_gordana, topscorer, scapuletti
Language : Russian
Default : Yes
Forced : No
Скриншоты:
         
         
Пожалуйста, не уходите с раздачи - помогите докачать другим. Если понравился релиз - жмите кнопку "Спасибо"!

Благодарности

Автор рипа - Hukumuzuku, сведение звука - nyctalus, полный перевод субтитров в рамках проекта notadenoid выплнен gordana, topscorer, scapuletti, координатор - vobedit
Всем, кто принимал участие в создании этого релиза, - моя искренняя благодарность, особо хочу поблагодарить Hadar - без его помощи и терпения этот релиз бы не состоялся...
Использована дорожка с телетрансляции русского канала Discovery
В рипе осталось несколько неозвученных голосом фрагментов из-за существенной разницы в видеомонтаже, в этом случае помогут субтитры.
Other forum [Profile] [PM]
Display posts from previous:    
Reply to topic

The time now is: Today 06:59

All times are GMT + 3 Hours



You cannot post new topics in this forum
You cannot reply to topics in this forum
You cannot edit your posts in this forum
You cannot delete your posts in this forum
You cannot vote in polls in this forum
You cannot attach files in this forum
You cannot download files in this forum