Today is a free download without charge Download

Конвой / Convoy (1978) HDRip [H.264]

Reply to topic
 
Author
Message

UndegraundMen ®

Longevity: 8 years 8 months

Posts: 25145

Торрент-статистика

Post 11-Oct-2013 23:00

[Quote]

Конвой / Convoy (1978) HDRip [H.264] -«Kristofferson and MacGraw...ain't nothin' gonna get in their way!»- Год выпуска: 1978
Жанр: Боевик, Драма, Комедия
Производство: США, Великобритания/EMI Films Ltd.
Описание фильма:
Мощный конвой грузовиков, вздымающих тучи пыли, движется к границе штата юго-западной части Америки.
Массивную коллекцию машин всех размеров и очертаний ведет «Резиновый утенок», легендарный водитель-дальнобойщик, который собрал армию единомышленников, протестуя против полицейской коррупции, государственных законов и теневой политики.
Режиссер: Сэм Пекинпа
Сценарий: Билл Фрайс, Билл Л. Нортон
Продюсер: Роберт М. Шерман, Майкл Дили, Барри Спайкингс
Актеры: Крис Кристофферсон, Эли МакГроу, Эрнест Боргнайн, Берт Янг, Мэдж Синклер, Френклин Эджайя, Брайан Дейвис, Сеймур Кэссел, Кэсси Йэтс, Уолтер Келли
Роли дублировали: Валерий Рыжаков, Ольга Гаспарова, Армен Джигарханян, Рудольф Панков, Нелли Витепаш, Владимир Басов мл., Тимофей Спивак, Всеволод Ларионов, Олег Мокшанцев, Сергей Малишевский
Продолжительность: 01:51:06
Качество видео: HDRip
Перевод: Дублированный(Киностудия им.Горького)
* На непереведённые места вставки многоголосого ОРТ

Дата мировой премьеры: 28 июня 1978
Дата выхода DVD релиза: 3 августа 2010, «Юниверсал Пикчерс Рус»
Видеокодек: MPEG-4 AVC/H.264
Битрейт видео: ~2062 Кбит/сек
Размер кадра: 1024x440
Аудиокодек: AC3 2.0
Битрейт аудио: 192 Кбит/сек

Знаете ли вы, что...

Фильм занимает 77-е место по посещаемости среди зарубежных фильмов в советском кинопрокате.
Из-за постоянных проблем со здоровьем, вызванных алкоголизмом и наркозависимостью, Пекинпа был вынужден пригласить в качестве второго режиссёра своего друга Джеймса Коберна. Коберн отснял большое количество материала, в то время как Пекинпа находился на площадке в своём трейлере.
На дверце кабины грузовика главного героя фильма по прозвищу Резиновый Утёнок — надпись «R.D. Trucking» (очевидно, название компании-автоперевозчика). «R.D.» — это первые буквы слов, составляющих имя главного героя в английском написании — Rubber Duck.
Один из немногих случаев, когда целый фильм снят по мотивам одной песни. Автор — William Fries, псевдоним C. W. McCall. Была использована его песня «Convoy» («Конвой»), написанная осенью 1975 г. и занимавшая первые строчки во многих чартах как в Америке, так и в других странах.

Реценция с кинопоиска от dillidon:

Поразительно — но спустя 30-ть лет этот фильм смотрится очень и очень достойно, и что удивительно стал более актуален для действительности, чем в 80-е годы. Кроме того, ни одного и близко подобного фильма я за тридцать лет не увидел. Несмотря на простой и незамысловатый сюжет, этот фильм подкупает романтикой дорог и красотой этих исполинов дорог, ну и безусловно обаянием Резинового Утенка.
Хочу отметить, что в советский прокат дублированный фильм вышел урезанным наверно на четверть, если не на треть, и даже в одноголосом переводе полной версии есть непереведенные участки — так что рекомендую при просмотре полной версии скачать субтитры, текст которых прекрасно дополняет дублированный перевод, и значительно точнее и понятнее, чем одноголосый перевод.

Из книги «3500 кинорецензий»

Эта американская картина была в нашем прокате с излишне буквалистским (и как бы «гулаговским») названием «Конвой». А ведь речь идёт о колонне грузовиков марки «Мэк», которая движется по юго-западу США в сторону Мексики. Водители, возглавляемые Мартином по прозвищу Резиновый утёнок, протестуют против бесконечных придирок полиции, высоких цен на бензин и плохих условий работы. Незамысловатый сюжет, который фактически был основан на популярной песне, даёт режиссёру прекрасную возможность для создания будто бы «комикса дорог», современного «автовестерна» с потрясающими гонками на неповоротливых трейлерах и с нагромождением эффектных трюков, снимаемых Сэмом Пекинпа в излюбленной рапидной манере. А песни в исполнении Криса Кристофферсона (он играл ещё пятью годами ранее в подлинном вестерне «Пэт Гэррет и Билли Кид» того же постановщика) позволяют воспринимать «Автоколонну» как ироническую балладу или шофёрскую байку о противостоянии водителей и полицейских.
Конечно, можно согласиться с тем, что слабый сценарий компенсируется за счёт почти героических режиссёрских усилий, а Пекинпа вволю демонстрирует свою страсть к аттракционным моментам, якобы зря расходуя творческую энергию на совсем не стоящий того фильм. Но этому постановщику, вечно скандалившему с продюсерами, почти не удавалось в течение всей карьеры творить именно в собственное удовольствие — и грешно упрекать его за стремление и даже жажду выплеснуть свою фантазию через край. «Смысл автоколонны в движении», — говорит один из героев картины. Вот и кинематограф, то есть этимологически — «фиксация движения», является, согласно Сэму Пекинпа, завораживающим способом схватывания и замедления мгновений быстротекущей реальности. Да здравствуют такие фанатики кино, как Пекинпа!

оценка: 7.0/10

MediaInfo:

Общее
Уникальный идентификатор : 212521658209480092452540830651290407315 (0x9FE22EBAC986ECF28E64E6E5FBDED193)
Полное имя : H:\Downloads\Конвой.mkv
Формат : Matroska
Размер файла : 1,75 Гбайт
Продолжительность : 1 ч. 51 м.
Общий поток : 2256 Кбит/сек
Дата кодирования : UTC 2013-10-11 08:14:05
Программа кодирования : mkvmerge v6.0.0 ('Coming Up For Air') built on Jan 20 2013 09:52:00
Библиотека кодирования : libebml v1.3.0 + libmatroska v1.4.0
Видео
Идентификатор : 1
Формат : AVC
Формат/Информация : Advanced Video Codec
Профиль формата : [url=mailto:[email protected]][email protected][/url]
Параметр CABAC формата : Да
Параметр ReFrames формата : 8 кадров
Параметры GOP формата : M=4, N=54
Идентификатор кодека : V_MPEG4/ISO/AVC
Продолжительность : 1 ч. 51 м.
Битрейт : 2062 Кбит/сек
Ширина : 1024 пикс.
Высота : 440 пикс.
Соотношение сторон : 2,35:1
Частота кадров : 23,976 кадр/сек
Цветовое пространство : YUV
Подвыборка цветности : 4:2:0
Битовая глубина : 8 бит
Тип развёртки : Прогрессивная
Бит/(Пиксели*Кадры) : 0.191
Размер потока : 1,57 Гбайт (89%)
Заголовок : Convoy
Библиотека кодирования : x264 core 125 r2208 d9d2288
Настройки программы : cabac=1 / ref=8 / deblock=1:-1:-1 / analyse=0x3:0x133 / me=umh / subme=9 / psy=1 / psy_rd=1.00:0.10 / mixed_ref=1 / me_range=32 / chroma_me=1 / trellis=2 / 8x8dct=1 / cqm=0 / deadzone=21,11 / fast_pskip=0 / chroma_qp_offset=-3 / threads=6 / lookahead_threads=1 / sliced_threads=0 / nr=0 / decimate=1 / interlaced=0 / bluray_compat=0 / constrained_intra=0 / bframes=3 / b_pyramid=2 / b_adapt=2 / b_bias=0 / direct=3 / weightb=1 / open_gop=0 / weightp=2 / keyint=250 / keyint_min=25 / scenecut=40 / intra_refresh=0 / rc_lookahead=60 / rc=2pass / mbtree=1 / bitrate=2062 / ratetol=1.0 / qcomp=0.60 / qpmin=10 / qpmax=51 / qpstep=4 / cplxblur=20.0 / qblur=0.5 / ip_ratio=1.40 / aq=1:1.00
Язык : English
Аудио
Идентификатор : 2
Формат : AC-3
Формат/Информация : Audio Coding 3
Расширение режима : CM (complete main)
Идентификатор кодека : A_AC3
Продолжительность : 1 ч. 51 м.
Вид битрейта : Постоянный
Битрейт : 192 Кбит/сек
Каналы : 2 канала
Расположение каналов : Front: L R
Частота : 48,0 КГц
Битовая глубина : 16 бит
Метод сжатия : С потерями
Размер потока : 153 Мбайт (9%)
Заголовок : Дубляж (со вставками многоголосого ОРТ, на не переведенные места)
Язык : Russian
Скриншоты:                    Время раздачи: с 13:00 до 01:00 по Москве (выходные круглосуточно), до 10 скачавших
Other forum [Profile] [PM]
Display posts from previous:    
Reply to topic

The time now is: Today 15:08

All times are GMT + 3 Hours



You cannot post new topics in this forum
You cannot reply to topics in this forum
You cannot edit your posts in this forum
You cannot delete your posts in this forum
You cannot vote in polls in this forum
You cannot attach files in this forum
You cannot download files in this forum