Today is a free download without charge Download

Когда матерей нет дома (Павле Чарквиани)[1977.,Короткометражный, Комедия, Детский] SATRip

Reply to topic
 
Author
Message

sashau ®

Gender:

Longevity: 9 years 6 months

Posts: 3497

Торрент-статистика

Post 11-Oct-2013 13:10

[Quote]

Когда матерей нет дома - Год выпуска: 1977
Производство: СССР, Грузия-фильм
Жанр: Короткометражный, Комедия, Детский
Описание фильма:
Две мамы уезжают в город на несколько дней сдавать экзамены в институт. А их сыновья-школьники Гоги и Ваха остаются с отцами. Но как папы будут за ними присматривать. Или все будет наоборот? Время проходит весело и приключения находят малышей, но когда же наконец вернуться мамы, думают они, и считают дни до их возвращения. Всего один проведенный день без мам, и столько приключений...
Режиссер: Павле Чарквиани
Актеры: Тинатин Бурбуташвили, Автандил Верулеишвили, Гия Кусрашвили, Тенгиз Арчвадзе, Гиви Берикашвили, Симон Берикашвили, Авто Гиоргобиани, Леомер Гугушвили
Продолжительность: 00:32:50
Качество видео: SATRip

Видеокодек: MPEG-2
Битрейт видео: ~2579 Кбит/сек
Размер кадра: 720x576
Аудиокодек: MP3, 2 ch
Битрейт аудио: 192 Кбит/сек

MediaInfo:

Общее
Полное имя : W:\Интересно\Когда матерей нет дома\Когда матерей нет дома (1977) SATRip.mpg
Формат : MPEG-PS
Размер файла : 664 Мбайт
Продолжительность : 32 м.
Режим общего битрейта : Переменный
Общий поток : 2828 Кбит/сек
Видео
Идентификатор : 224 (0xE0)
Формат : MPEG Video
Версия формата : Version 2
Профиль формата : [email protected]
Параметр BVOP формата : Да
Параметр матрицы формата : Выборочная
Параметр GOP формата : M=3, N=12
Продолжительность : 32 м.
Вид битрейта : Переменный
Битрейт : 2579 Кбит/сек
Максимальный битрейт : 5000 Кбит/сек
Ширина : 720 пикселей
Высота : 576 пикселей
Соотношение сторон : 4:3
Частота кадров : 25,000 кадров/сек
Стандарт вещания : PAL
Цветовое пространство : YUV
Субдискретизация насыщенности : 4:2:0
Битовая глубина : 8 бит
Тип развёртки : Чересстрочная
Порядок развёртки : Верхнее поле первое
Метод сжатия : С потерями
Бит/(Пиксели*Кадры) : 0.249
Временной код первого кадра : 00:00:00:00
Оригинал временного кода : Group of pictures header
Размер потока : 606 Мбайт (91%)
Аудио
Идентификатор : 192 (0xC0)
Формат : MPEG Audio
Версия формата : Version 1
Профиль формата : Layer 2
Продолжительность : 32 м.
Вид битрейта : Постоянный
Битрейт : 192 Кбит/сек
Каналы : 2 канала
Частота : 48,0 КГц
Метод сжатия : С потерями
Размер потока : 45,1 Мбайт (7%)
Скриншоты:
         
         
Other forum [Profile] [PM]
Display posts from previous:    
Reply to topic

The time now is: Today 03:46

All times are GMT + 3 Hours



You cannot post new topics in this forum
You cannot reply to topics in this forum
You cannot edit your posts in this forum
You cannot delete your posts in this forum
You cannot vote in polls in this forum
You cannot attach files in this forum
You cannot download files in this forum