Today is a free download without charge Download

Дудка-веселушка (Евгений Ларченко) [1978, Кукольный мультфильм, TVRip]

Reply to topic
 
Author
Message

Omen ®

Longevity: 7 years 11 months

Posts: 181087

Торрент-статистика

Post 10-Oct-2013 22:55

[Quote]

Дудка-веселушка
Страна: СССР
Жанр: Кукольный мультфильм
Продолжительность: 00:08:57
Год выпуска: 1978
Русские субтитры: нет
Режиссёр: Евгений Ларченко
Описание: По мотивам белорусских народных песен о Василе-дудочнике
Доп. информация: „Беларусьфильм“
Композитор:Е.Глебов
Оператор:Т.Логинова
Монтаж:И.Волкова
Раздача группы:
Качество: TVRip
Формат: AVI
Видео: 720x544 (1.32:1), 25 fps, XviD Final 1.0 (build 34) ~2180 kbps avg, 0.22 bit/pixel
Аудио: 48 kHz, MPEG Layer 3, 2 ch, ~128.00 kbps avg
Субтитры: нет

Подробные технические данные

Format : AVIFormat/Info : Audio Video InterleaveFile size : 149 MiBDuration : 9mn 20sOverall bit rate : 2 226 Kbps
VideoID : 0Format : MPEG-4 VisualFormat profile : Advanced [email protected] settings, BVOP : 1Format settings, QPel : NoFormat settings, GMC : No warppointsFormat settings, Matrix : CustomCodec ID : XVIDCodec ID/Hint : XviDDuration : 8mn 57sBit rate : 2 186 KbpsWidth : 720 pixelsHeight : 544 pixelsDisplay aspect ratio : 4:3Frame rate : 25.000 fpsColor space : YUVChroma subsampling : 4:2:0Bit depth : 8 bitsScan type : ProgressiveCompression mode : LossyBits/(Pixel*Frame) : 0.223Stream size : 140 MiB (94%)Writing library : XviD 1.0.0 (UTC 2004-05-09)
AudioID : 1Format : MPEG AudioFormat version : Version 1Format profile : Layer 3Mode : Joint stereoMode extension : MS StereoCodec ID : 55Codec ID/Hint : MP3Duration : 9mn 20sSource duration : 8mn 57sBit rate mode : ConstantBit rate : 128 KbpsChannel(s) : 2 channelsSampling rate : 48.0 KHzCompression mode : LossyStream size : 8.20 MiB (6%)Alignment : Aligned on interleavesInterleave, duration : 40 ms (1.00 video frame)

Скриншоты

Other forum [Profile] [PM]
Display posts from previous:    
Reply to topic

The time now is: Today 11:40

All times are GMT + 3 Hours



You cannot post new topics in this forum
You cannot reply to topics in this forum
You cannot edit your posts in this forum
You cannot delete your posts in this forum
You cannot vote in polls in this forum
You cannot attach files in this forum
You cannot download files in this forum