Today is a free download without charge Download

Сашко ( Евгений Брюнчугин)[1958.,Драма, Детектив, Военный] DVDRip

Reply to topic
 
Author
Message

sashau ®

Gender:

Longevity: 9 years 6 months

Posts: 3497

Торрент-статистика

Post 10-Oct-2013 12:31

[Quote]

Сашко - Год выпуска: 1958
Производство: Киностудия им. А.Довженко
Жанр: Драма, Детектив, Военный
Описание фильма:
Все считали Сашко озорником, а тот мечтал о подвиге. Однажды мальчугана пригласили сниматься в кино. Вместе со всей съемочной группой Сашко поехал в первую свою экспедицию. Но началась война. Раненого Сашко спасла и выходила крестьянка, а когда он поправился, снарядила его в далекий путь — домой, в Киев. Он добрался до родного города, где уже хозяйничали фашисты, и вскоре, связавшись с партизанами, Сашко начал им помогать...
Режиссер: Евгений Брюнчугин
Актеры: Лёня Бабич, Лариса Хоролец, Владимир Данилин, Николай Козленко, Виктор Зубарев, Неонила Гнеповская, Анна Кушниренко, Виктор Мягкий, Алексей Бунин, Полина Нятко, Михаил Рост, Софья Карамаш, Ольга Ножкина, Лариса Борисенко, Габриэль Нелидов
Продолжительность: 01:12:42
Качество видео: DVDRip

Видеокодек: Xvid
Битрейт видео: ~2124 Кбит/сек
Размер кадра: 704x512
Аудиокодек: AC3 2.0
Битрейт аудио: 256 Кбит/сек

MediaInfo:

Общее
Полное имя : W:\Интересно\Сашко (1958)\Сашко (1958) DVDRip.avi
Формат : AVI
Формат/Информация : Audio Video Interleave
Профиль формата : OpenDML
Размер файла : 1,22 Гбайт
Продолжительность : 1 ч. 12 м.
Общий поток : 2394 Кбит/сек
Видео
Идентификатор : 0
Формат : MPEG-4 Visual
Профиль формата : Advanced [email protected]
Параметр BVOP формата : 1
Параметр QPel формата : Нет
Параметр GMC формата : Без точки перехода
Параметр матрицы формата : Default (H.263)
Режим смешивания : Сжатый битовый поток
Идентификатор кодека : XVID
Идентификатор кодека/Подсказка : XviD
Продолжительность : 1 ч. 12 м.
Битрейт : 2124 Кбит/сек
Ширина : 704 пикселя
Высота : 512 пикселей
Соотношение сторон : 1,375
Частота кадров : 25,000 кадров/сек
Цветовое пространство : YUV
Субдискретизация насыщенности : 4:2:0
Битовая глубина : 8 бит
Тип развёртки : Прогрессивная
Метод сжатия : С потерями
Бит/(Пиксели*Кадры) : 0.236
Размер потока : 1,08 Гбайт (89%)
Библиотека кодирования : XviD 1.1.0 (UTC 2005-11-22)
Аудио
Идентификатор : 1
Формат : AC-3
Формат/Информация : Audio Coding 3
Расширение режима : CM (complete main)
Параметр Endianness формата : Big
Идентификатор кодека : 2000
Продолжительность : 1 ч. 12 м.
Вид битрейта : Постоянный
Битрейт : 256 Кбит/сек
Каналы : 2 канала
Расположение каналов : Front: L R
Частота : 48,0 КГц
Битовая глубина : 16 бит
Метод сжатия : С потерями
Размер потока : 133 Мбайт (11%)
Выравнивание : Соединение по промежуткам
Продолжительность промежутка : 32 мс. (0,80 видеокадр)
Время предзагрузки промежутка : 32 мс.
Скриншоты:          
         
Other forum [Profile] [PM]
Display posts from previous:    
Reply to topic

The time now is: Today 08:20

All times are GMT + 3 Hours



You cannot post new topics in this forum
You cannot reply to topics in this forum
You cannot edit your posts in this forum
You cannot delete your posts in this forum
You cannot vote in polls in this forum
You cannot attach files in this forum
You cannot download files in this forum