Today is a free download without charge Download

Discovery: Почему? Вопросы мироздания. Природа нашего зла? / Curiosity. How evil are you? (2011) HDTVRip [H.264/720p-LQ] [Сезон 1, серия 13]

Reply to topic
 
Author
Message

UndegraundMen ®

Longevity: 7 years 7 months

Posts: 25145

Торрент-статистика

Post 10-Oct-2013 05:00

[Quote]

Discovery: Почему? Вопросы мироздания. Природа нашего зла? / Curiosity. How evil are you? (2011) HDTVRip [H.264/720p-LQ] [Сезон 1, серия 13]- Режиссер / Телекомпания: Discovery Channel
Страна: США
Год выпуска: 2011
Жанр: Документальный, научно-популярный, расследования
Описание: Одних интересует техника, других – география, третьих – астрономия, но есть вопросы, которые волнуют практически каждого человека независимо от возраста, образования и увлечений. Discovery Channel вместе со зрителями будет искать на них ответы в самом масштабном проекте в истории канала, который выходит в эфир под названием "Почему? Вопросы мироздания". Есть ли разумная жизнь на других планетах? Почему обычные люди могут превращаться в жестоких монстров? Как появилось все сущее?
В этом фильме: Есть ли какое-то научное объяснение тому, что есть зло и какова его природа? Насколько подвержен ему тот или иной человек и в силах ли он бороться с ним?
Продолжительность: 00:42:28
Перевод: Одноголосый закадровый (профессиональный, НТВ Плюс)
Формат файла: MKV
Видеокодек: MPEG-4 AVC/H.264
Битрейт видео: ~2 068 Кбит/с
Размер кадра: 1280 x 720
Качество видео: HDTVRip [720p-LQ]
Аудио:
1. [русский] MP3, 2 ch, 128 Кбит/с
2. [english] AC3, 6 ch, 384 Кбит/с

MediaInfo

General
Unique ID : 190194328477669582045716580575385320288 (0x8F16186217BE7AFF905755B92A1D7B60)
Complete name : I:\Discovery.Curiosity.s01.ep13.How.Evil.Are.You.HDTVRip.720p.mkv
Format : Matroska
Format version : Version 2
File size : 800 MiB
Duration : 42mn 28s
Overall bit rate : 2 632 Kbps
Encoded date : UTC 2012-06-15 15:52:44
Writing application : mkvmerge v5.4.0 ('Piper') built on Mar 10 2012 13:34:39
Writing library : libebml v1.2.3 + libmatroska v1.3.0
Video
ID : 1
Format : AVC
Format/Info : Advanced Video Codec
Format profile : [url=mailto:[email protected]][email protected][/url]
Format settings, CABAC : Yes
Format settings, ReFrames : 5 frames
Codec ID : V_MPEG4/ISO/AVC
Duration : 42mn 28s
Bit rate : 2 068 Kbps
Width : 1 280 pixels
Height : 714 pixels
Display aspect ratio : 16:9
Frame rate mode : Constant
Frame rate : 23.976 fps
Color space : YUV
Chroma subsampling : 4:2:0
Bit depth : 8 bits
Scan type : Progressive
Bits/(Pixel*Frame) : 0.094
Stream size : 628 MiB (79%)
Writing library : x264 core 119 r2106 07efeb4
Encoding settings : cabac=1 / ref=5 / deblock=1:0:0 / analyse=0x3:0x113 / me=umh / subme=8 / psy=1 / psy_rd=1.00:0.00 / mixed_ref=1 / me_range=16 / chroma_me=1 / trellis=1 / 8x8dct=1 / cqm=0 / deadzone=21,11 / fast_pskip=1 / chroma_qp_offset=-2 / threads=16 / sliced_threads=0 / nr=0 / decimate=1 / interlaced=0 / bluray_compat=0 / constrained_intra=0 / bframes=3 / b_pyramid=2 / b_adapt=2 / b_bias=0 / direct=3 / weightb=1 / open_gop=0 / weightp=2 / keyint=240 / keyint_min=24 / scenecut=40 / intra_refresh=0 / rc_lookahead=50 / rc=crf / mbtree=1 / crf=20.0 / qcomp=0.60 / qpmin=0 / qpmax=69 / qpstep=4 / ip_ratio=1.40 / aq=1:1.00
Language : English
Default : No
Forced : No
Audio #1
ID : 2
Format : MPEG Audio
Format version : Version 1
Format profile : Layer 3
Codec ID : A_MPEG/L3
Codec ID/Hint : MP3
Duration : 42mn 28s
Bit rate mode : Constant
Bit rate : 128 Kbps
Channel(s) : 2 channels
Sampling rate : 48.0 KHz
Compression mode : Lossy
Stream size : 38.9 MiB (5%)
Language : Russian
Default : Yes
Forced : No
Audio #2
ID : 3
Format : AC-3
Format/Info : Audio Coding 3
Mode extension : CM (complete main)
Format settings, Endianness : Big
Codec ID : A_AC3
Duration : 42mn 28s
Bit rate mode : Constant
Bit rate : 384 Kbps
Channel(s) : 6 channels
Channel positions : Front: L C R, Side: L R, LFE
Sampling rate : 48.0 KHz
Bit depth : 16 bits
Compression mode : Lossy
Stream size : 117 MiB (15%)
Language : English
Default : No
Forced : No
Скриншоты:
         
         
Пожалуйста, не уходите с раздачи - помогите докачать другим. Если понравился релиз - жмите кнопку "Спасибо"!
Other forum [Profile] [PM]
Display posts from previous:    
Reply to topic

The time now is: Today 00:22

All times are GMT + 3 Hours



You cannot post new topics in this forum
You cannot reply to topics in this forum
You cannot edit your posts in this forum
You cannot delete your posts in this forum
You cannot vote in polls in this forum
You cannot attach files in this forum
You cannot download files in this forum