Today is a free download without charge Download

Discovery. Беар Гриллс. По стопам выживших / Bear Grylls. Escape From Hell (2013) HDTV [H.264/720p-LQ] [Сезон 1, серия 1] [Обновляемая]

Reply to topic
 
Author
Message

UndegraundMen ®

Longevity: 7 years 7 months

Posts: 25145

Торрент-статистика

Post 09-Oct-2013 23:00

[Quote]

Discovery. Беар Гриллс. По стопам выживших / Bear Grylls. Escape From Hell (2013) HDTV [H.264/720p]
[Сезон 1, серия 1] [Обновляемая]
- Режиссер / Телекомпания: Discovery Channel
Страна: Великобритания
Год выпуска: 2013
Жанр: Документальный, исследования, приключения
Актеры: Беар Гриллс
Описание: Discovery Channel рад вновь поприветствовать известного на весь мир любителя приключений и эксперта по выживанию Беара Гриллса. В новой телепрограмме «Беар Гриллс: по стопам выживших» нам расскажут о правдивых историях обычных людей, которые попали в беду и вынуждены были сражаться за свою жизнь. От лавин до сильных песчаных бурь - Беар разберет с нами все ключевые моменты и события, объясняя, как эти люди смогли остаться живыми, стоя на границе между жизнью и смертью. Мы сможем узнать, какие именно действия помогли им выжить, а также узнаем об ошибках, которые чуть не стоили им жизни.
Продолжительность: 1х ~00:43:34
Перевод: Одноголосый закадровый (профессиональный)
Формат файла: MKV
Видеокодек: MPEG-4 AVC/H.264
Битрейт видео: ~3 680 Кбит/с
Размер кадра: 1280 x 720
Качество видео: HDTVRip [720p-LQ]
Аудио:
1. [русский] AC3, 2 ch, 192 Кбит/с
2. [english] AC3, 6 ch, 384 Кбит/с
Содержание:

Серия 1. Гватемала

Скриншоты:
         
Скриншоты:
         
         

MediaInfo

General
Unique ID : 183163017592457682499317907040052480629 (0x89CBE9FDC6A621508EFA598049188A75)
Complete name : I:\РЕЛИЗЫ\Discovery.Escape.From.Hell.HDTV.720p\Escape.From.Hell.(2013).ep.01.HDTV.720p.mkv
Format : Matroska
Format version : Version 2
File size : 1.32 GiB
Duration : 43mn 34s
Overall bit rate : 4 343 Kbps
Encoded date : UTC 2013-10-09 13:14:13
Writing application : mkvmerge v2.9.9 ('Tutu') built on Nov 25 2009 21:13:32
Writing library : libebml v0.7.9 + libmatroska v0.8.1
Video
ID : 1
Format : AVC
Format/Info : Advanced Video Codec
Format profile : [url=mailto:[email protected]][email protected][/url]
Format settings, CABAC : Yes
Format settings, ReFrames : 5 frames
Codec ID : V_MPEG4/ISO/AVC
Duration : 43mn 34s
Bit rate : 3 680 Kbps
Width : 1 280 pixels
Height : 720 pixels
Display aspect ratio : 16:9
Frame rate mode : Constant
Frame rate : 25.000 fps
Color space : YUV
Chroma subsampling : 4:2:0
Bit depth : 8 bits
Scan type : Progressive
Bits/(Pixel*Frame) : 0.160
Stream size : 1.12 GiB (85%)
Writing library : x264 core 138 r2358 9e941d1
Encoding settings : cabac=1 / ref=5 / deblock=1:0:0 / analyse=0x3:0x113 / me=umh / subme=8 / psy=1 / psy_rd=1.00:0.00 / mixed_ref=1 / me_range=16 / chroma_me=1 / trellis=1 / 8x8dct=1 / cqm=0 / deadzone=21,11 / fast_pskip=1 / chroma_qp_offset=-2 / threads=12 / lookahead_threads=2 / sliced_threads=0 / nr=0 / decimate=1 / interlaced=0 / bluray_compat=0 / constrained_intra=0 / bframes=3 / b_pyramid=2 / b_adapt=2 / b_bias=0 / direct=3 / weightb=1 / open_gop=0 / weightp=2 / keyint=250 / keyint_min=25 / scenecut=40 / intra_refresh=0 / rc_lookahead=50 / rc=crf / mbtree=1 / crf=20.0 / qcomp=0.60 / qpmin=0 / qpmax=69 / qpstep=4 / ip_ratio=1.40 / aq=1:1.00
Default : No
Forced : No
Matrix coefficients : BT.709
Audio #1
ID : 2
Format : AC-3
Format/Info : Audio Coding 3
Mode extension : CM (complete main)
Format settings, Endianness : Big
Codec ID : A_AC3
Duration : 43mn 34s
Bit rate mode : Constant
Bit rate : 192 Kbps
Channel(s) : 2 channels
Channel positions : Front: L R
Sampling rate : 48.0 KHz
Bit depth : 16 bits
Compression mode : Lossy
Stream size : 59.8 MiB (4%)
Default : Yes
Forced : Yes
Audio #2
ID : 3
Format : AC-3
Format/Info : Audio Coding 3
Mode extension : CM (complete main)
Format settings, Endianness : Big
Codec ID : A_AC3
Duration : 43mn 34s
Bit rate mode : Constant
Bit rate : 384 Kbps
Channel(s) : 6 channels
Channel positions : Front: L C R, Side: L R, LFE
Sampling rate : 48.0 KHz
Bit depth : 16 bits
Compression mode : Lossy
Stream size : 120 MiB (9%)
Title : English
Language : English
Default : No
Forced : No
Пожалуйста, не уходите с раздачи - помогите докачать другим. Если понравился релиз - жмите кнопку "Спасибо"!
Other forum [Profile] [PM]
Display posts from previous:    
Reply to topic

The time now is: Today 08:34

All times are GMT + 3 Hours



You cannot post new topics in this forum
You cannot reply to topics in this forum
You cannot edit your posts in this forum
You cannot delete your posts in this forum
You cannot vote in polls in this forum
You cannot attach files in this forum
You cannot download files in this forum