Today is a free download without charge Download

Смерть чиновника (Александр Викен) [1988, Рисованный мультфильм, SATRip]

Reply to topic
 
Author
Message

Omen ®

Longevity: 7 years 11 months

Posts: 181087

Торрент-статистика

Post 09-Oct-2013 14:07

[Quote]

Смерть чиновника
Страна: СССР
Жанр: Рисованный мультфильм
Продолжительность: 00:09:46
Год выпуска: 1988
Русские субтитры: нет
Режиссёр: Александр Викен
Описание: Мультипликационный фильм для взрослых по одноименному рассказу А. П. Чехова. Однажды вечером экзекутор Иван Дмитриевич Червяков пошёл в театр. Он был на вершине блаженства. Но вдруг он чихнул на статского генерала Бризжалова. После этого случая Червяков ходил много раз извиняться перед генералом, не понимая, что тот давно уже простил его. В конце концов генерал, думая, что тот смеётся над ним, выгнал Червякова.
Доп. информация: "Киевнаучфильм"
Качество: SATRip
Формат: AVI
Видео: 512x384 (1.33:1), 25 fps, XviD MPEG-4 ~1698 kbps avg, 0.34 bit/pixel
Аудио: 48 kHz, MPEG Layer 3, 1 ch, ~96.00 kbps avg
Субтитры: нет

Подробные технические данные

Format : AVIFormat/Info : Audio Video InterleaveFile size : 126 MiBDuration : 9mn 46sOverall bit rate : 1 804 Kbps
VideoID : 0Format : MPEG-4 VisualFormat profile : Advanced [email protected] settings, BVOP : 1Format settings, QPel : NoFormat settings, GMC : No warppointsFormat settings, Matrix : Default (MPEG)Codec ID : XVIDCodec ID/Hint : XviDDuration : 9mn 46sBit rate : 1 699 KbpsWidth : 512 pixelsHeight : 384 pixelsDisplay aspect ratio : 4:3Frame rate : 25.000 fpsColor space : YUVChroma subsampling : 4:2:0Bit depth : 8 bitsScan type : ProgressiveCompression mode : LossyBits/(Pixel*Frame) : 0.346Stream size : 119 MiB (94%)Writing library : DivX 1393
AudioID : 1Format : MPEG AudioFormat version : Version 1Format profile : Layer 3Codec ID : 55Codec ID/Hint : MP3Duration : 9mn 45sBit rate mode : ConstantBit rate : 96.0 KbpsChannel(s) : 1 channelSampling rate : 48.0 KHzCompression mode : LossyStream size : 6.71 MiB (5%)Alignment : Split accross interleavesInterleave, duration : 40 ms (1.00 video frame)Interleave, preload duration : 500 ms

Скриншоты

Other forum [Profile] [PM]
Similar theme
Forum Topic Author Torrent Replies Last Post
./templates/default/images/folder_dl.gif Разное Хаха Лунг | Девять залов смерти. Секреты мастерства ниндзя (2010) [FB2, EPUB] }{@R0N
1 | 0

0 | 10541

7

2017-08-19 21:48
}{@R0N Latest
Display posts from previous:    
Reply to topic

The time now is: Today 23:35

All times are GMT + 3 Hours



You cannot post new topics in this forum
You cannot reply to topics in this forum
You cannot edit your posts in this forum
You cannot delete your posts in this forum
You cannot vote in polls in this forum
You cannot attach files in this forum
You cannot download files in this forum