Today is a free download without charge Download

Шах и слуга (Назим Мамедов, Борис Алиев) [1979, Рисованный мультфильм, VHSRip]

Reply to topic
 
Author
Message

Omen ®

Longevity: 7 years 11 months

Posts: 181087

Торрент-статистика

Post 09-Oct-2013 14:07

[Quote]

Шах и слуга
Страна: СССР
Жанр: Рисованный мультфильм
Продолжительность: 00:06:52
Год выпуска: 1979
Русские субтитры: нет
Режиссёр: Назим Мамедов, Борис Алиев
Описание: Мультипликационный фильм для детей по мотивам одноименной сказки Низами Гянджеви о верном слуге и жестоком шахе.
Доп. информация: „Айзербайджанфильм“
Раздача группы:
Качество: VHSRip
Формат: AVI
Видео: 720x480 (1.50:1), 25 fps, DivX Codec 5.x or 6.x ~1200 kbps avg, 0.14 bit/pixel
Аудио: 44.100 kHz, MPEG Layer 3, 2 ch, ~128.00 kbps avg
Субтитры: нет

Подробные технические данные

Format : AVIFormat/Info : Audio Video InterleaveFile size : 65.9 MiBDuration : 6mn 52sOverall bit rate : 1 341 KbpsWriting application : MEncoder SVN-r29352(20090610-gcc4.3.3)Writing library : MPlayer
VideoID : 0Format : MPEG-4 VisualFormat profile : [email protected] settings, BVOP : NoFormat settings, QPel : NoFormat settings, GMC : No warppointsFormat settings, Matrix : Default (H.263)Codec ID : DX50Codec ID/Hint : DivX 5Duration : 6mn 52sBit rate : 1 201 KbpsWidth : 720 pixelsHeight : 480 pixelsDisplay aspect ratio : 4:3Frame rate : 25.000 fpsStandard : NTSCColor space : YUVChroma subsampling : 4:2:0Bit depth : 8 bitsScan type : ProgressiveCompression mode : LossyBits/(Pixel*Frame) : 0.139Stream size : 59.0 MiB (90%)Writing library : Lavc52.30.2
AudioID : 1Format : MPEG AudioFormat version : Version 1Format profile : Layer 3Mode : Joint stereoMode extension : MS StereoCodec ID : 55Codec ID/Hint : MP3Duration : 6mn 52sBit rate mode : ConstantBit rate : 128 KbpsChannel(s) : 2 channelsSampling rate : 44.1 KHzCompression mode : LossyStream size : 6.29 MiB (10%)Alignment : Aligned on interleavesInterleave, duration : 26 ms (0.65 video frame)Interleave, preload duration : 522 ms

Скриншоты

Other forum [Profile] [PM]
Display posts from previous:    
Reply to topic

The time now is: Today 07:53

All times are GMT + 3 Hours



You cannot post new topics in this forum
You cannot reply to topics in this forum
You cannot edit your posts in this forum
You cannot delete your posts in this forum
You cannot vote in polls in this forum
You cannot attach files in this forum
You cannot download files in this forum