Today is a free download without charge Download

В тумане (Сергей Лозница) [2012, Россия, военная драма, Blu-ray disc 1080p] Sub Eng

Reply to topic
 
Author
Message

Omen ®

Longevity: 8 years 10 months

Posts: 181086

Торрент-статистика

Post 09-Oct-2013 05:59

[Quote]

В тумане
Страна: Россия
Студия: MA.JA.DE Fiction
Жанр: военная драма
Год выпуска: 2012
Продолжительность: 02:07:46
Cубтитры: английские
Оригинальная аудиодорожка: русский
Режиссер: Сергей Лозница
В ролях: Владимир Свирский, Владислав Абашин, Сергей Колесов, Никита Перемотов, Юлия Пересильд, Кирилл Петров, Дмитрий Колосов, Степан Богданов, Дмитрий Быковский, Влад Иванов, Игорь Хрипунов, Надежда Маркина, Борис Каморзин, Михаил Евланов, Сергей Русскин, Тимофей Трибунцев
Описание: Фильм снят по одноимённой повести Василя Быкова. Действие происходит в 1942 году в оккупированной немцами Белоруссии. Путевого обходчика Сущеню ложно обвиняют в сотрудничестве с оккупантами...
Бонусы:
Фильм Сергея Лозница "Письмо" (2013)
Трейлер
Сэмпл: http://multi-up.com/911202
Тип релиза: Blu-ray disc
Контейнер: BDMV
Видео: MPEG-4 AVC Video / 16997 kbps / 1080p / 24 fps / 16:9 / High Profile 4.1
Аудио 1: Russian / LPCM Audio / 2.0 / 48 kHz / 2304 kbps / 24-bit
Аудио 2: Russian / DTS-HD Master Audio / 5.1 / 48 kHz / 1788 kbps / 16-bit (DTS Core: 5.1 / 48 kHz / 1509 kbps / 16-bit)
Формат субтитров: prerendered (Blu-ray/PGS/SUP)

BDInfo

Disc Title: B тумане_D
Disc Size: 23 578 150 636 bytes
Protection: AACS
BD-Java: No
Extras: 50Hz Content
BDInfo: 0.5.8
Notes:
BDINFO HOME:
Cinema Squid
http://www.cinemasquid.com/blu-ray/tools/bdinfo
INCLUDES FORUMS REPORT FOR:
AVS Forum Blu-ray Audio and Video Specifications Thread
http://www.avsforum.com/avs-vb/showthread.php?t=1155731
********************
PLAYLIST: 00000.MPLS
********************
Код:
Total   Video
Title                                                           Codec   Length  Movie Size      Disc Size       Bitrate Bitrate Main Audio Track                          Secondary Audio Track
-----                                                           ------  ------- --------------  --------------  ------- ------- ------------------                        ---------------------
00000.MPLS                                                      AVC     2:07:45 21 447 075 840  23 578 150 636  22,38   17,00   LPCM 2.0 2304Kbps (48kHz/24-bit)          DTS-HD Master 5.1 1788Kbps (48kHz/16-bit)
Код:
DISC INFO:
Disc Title:     B тумане_D
Disc Size:      23 578 150 636 bytes
Protection:     AACS
BD-Java:        No
Extras:         50Hz Content
BDInfo:         0.5.8
PLAYLIST REPORT:
Name:                   00000.MPLS
Length:                 2:07:45.708 (h:m:s.ms)
Size:                   21 447 075 840 bytes
Total Bitrate:          22,38 Mbps
VIDEO:
Codec                   Bitrate             Description
-----                   -------             -----------
MPEG-4 AVC Video        16997 kbps          1080p / 24 fps / 16:9 / High Profile 4.1
AUDIO:
Codec                           Language        Bitrate         Description
-----                           --------        -------         -----------
LPCM Audio                      Belarusian      2304 kbps       2.0 / 48 kHz / 2304 kbps / 24-bit
DTS-HD Master Audio             Belarusian      1788 kbps       5.1 / 48 kHz / 1788 kbps / 16-bit (DTS Core: 5.1 / 48 kHz / 1509 kbps / 16-bit)
SUBTITLES:
Codec                           Language        Bitrate         Description
-----                           --------        -------         -----------
Presentation Graphics           English         11,224 kbps
FILES:
Name            Time In         Length          Size            Total Bitrate
----            -------         ------          ----            -------------
00002.M2TS      0:00:00.000     2:07:45.708     21 447 075 840  22 382
CHAPTERS:
Number          Time In         Length          Avg Video Rate  Max 1-Sec Rate  Max 1-Sec Time  Max 5-Sec Rate  Max 5-Sec Time  Max 10Sec Rate  Max 10Sec Time  Avg Frame Size  Max Frame Size  Max Frame Time
------          -------         ------          --------------  --------------  --------------  --------------  --------------  --------------  --------------  --------------  --------------  --------------
1               0:00:00.000     0:05:20.416     18 148 kbps     30 926 kbps     00:01:46.708    29 519 kbps     00:01:43.916    28 644 kbps     00:01:43.124    94 509 bytes    347 537 bytes   00:00:24.250
2               0:05:20.416     0:07:21.750     16 912 kbps     30 096 kbps     00:05:46.749    27 133 kbps     00:05:43.041    24 626 kbps     00:05:39.916    88 082 bytes    273 734 bytes   00:09:34.875
3               0:12:42.166     0:05:51.416     15 966 kbps     25 640 kbps     00:14:38.208    23 088 kbps     00:14:36.833    21 309 kbps     00:14:49.208    83 156 bytes    252 093 bytes   00:14:40.250
4               0:18:33.583     0:05:17.666     15 655 kbps     24 928 kbps     00:18:54.958    20 557 kbps     00:18:54.875    20 030 kbps     00:18:47.541    81 536 bytes    307 344 bytes   00:22:17.458
5               0:23:51.250     0:06:09.458     15 606 kbps     26 787 kbps     00:24:18.208    23 411 kbps     00:28:19.458    20 329 kbps     00:28:19.124    81 281 bytes    261 187 bytes   00:28:01.166
6               0:30:00.708     0:06:22.000     17 266 kbps     32 470 kbps     00:30:42.166    25 691 kbps     00:30:39.083    24 161 kbps     00:30:55.666    89 925 bytes    292 217 bytes   00:31:44.708
7               0:36:22.708     0:06:21.208     17 735 kbps     32 977 kbps     00:37:24.166    27 146 kbps     00:37:47.416    26 996 kbps     00:37:42.333    92 372 bytes    295 982 bytes   00:38:10.708
8               0:42:43.916     0:06:06.791     16 454 kbps     26 664 kbps     00:46:45.416    22 413 kbps     00:46:43.500    21 156 kbps     00:46:42.416    85 698 bytes    275 472 bytes   00:48:15.791
9               0:48:50.708     0:05:02.750     17 925 kbps     28 315 kbps     00:52:22.833    24 272 kbps     00:51:58.708    23 071 kbps     00:51:15.124    93 357 bytes    271 483 bytes   00:53:45.291
10              0:53:53.458     0:07:46.041     16 022 kbps     31 478 kbps     00:57:01.291    29 174 kbps     00:56:44.208    28 609 kbps     00:56:43.291    83 447 bytes    299 243 bytes   00:57:52.333
11              1:01:39.500     0:05:20.375     14 187 kbps     25 598 kbps     01:06:37.291    22 334 kbps     01:06:37.291    18 387 kbps     01:06:35.499    73 893 bytes    298 475 bytes   01:06:57.541
12              1:06:59.875     0:06:18.916     16 858 kbps     27 350 kbps     01:10:37.124    23 428 kbps     01:10:35.958    21 699 kbps     01:11:52.374    87 804 bytes    299 394 bytes   01:11:39.416
13              1:13:18.791     0:05:24.541     15 915 kbps     29 106 kbps     01:17:59.541    24 316 kbps     01:18:10.083    22 746 kbps     01:18:04.916    82 890 bytes    254 046 bytes   01:17:34.583
14              1:18:43.333     0:07:45.458     17 326 kbps     26 787 kbps     01:21:36.999    23 247 kbps     01:21:35.208    22 517 kbps     01:21:35.291    90 240 bytes    297 770 bytes   01:21:39.333
15              1:26:28.791     0:05:28.791     21 351 kbps     33 608 kbps     01:29:16.583    31 528 kbps     01:29:56.625    30 853 kbps     01:29:55.916    111 203 bytes   306 930 bytes   01:31:02.958
16              1:31:57.583     0:05:35.625     18 586 kbps     32 698 kbps     01:36:47.583    28 955 kbps     01:33:05.500    27 846 kbps     01:33:00.458    96 804 bytes    285 171 bytes   01:32:00.583
17              1:37:33.208     0:04:39.041     15 701 kbps     26 764 kbps     01:41:56.583    22 169 kbps     01:37:41.125    21 566 kbps     01:37:38.166    81 776 bytes    300 205 bytes   01:42:04.625
18              1:42:12.250     0:06:43.750     18 607 kbps     29 316 kbps     01:45:28.458    25 267 kbps     01:45:26.541    23 153 kbps     01:45:21.458    96 911 bytes    277 466 bytes   01:44:37.500
19              1:48:56.000     0:06:34.291     17 694 kbps     24 910 kbps     01:53:54.499    23 363 kbps     01:53:51.833    22 386 kbps     01:53:47.499    92 158 bytes    319 449 bytes   01:51:36.083
20              1:55:30.291     0:05:14.875     19 073 kbps     31 590 kbps     01:55:52.041    27 959 kbps     01:55:48.083    27 101 kbps     01:55:46.249    99 340 bytes    377 946 bytes   01:57:20.666
21              2:00:45.166     0:07:00.541     14 459 kbps     25 991 kbps     02:04:01.124    24 014 kbps     02:03:57.208    23 844 kbps     02:03:54.124    75 312 bytes    395 643 bytes   02:04:19.166
STREAM DIAGNOSTICS:
File            PID             Type            Codec           Language                Seconds                 Bitrate                 Bytes           Packets
----            ---             ----            -----           --------                --------------          --------------          -------------   -----
00002.M2TS      4113 (0x1011)   0x1B            AVC                                     7665,542                16 998                  16 287 214 316  88 624 954
00002.M2TS      4352 (0x1100)   0x80            LPCM            bel (Belarusian)        7665,542                2 310                   2 213 857 048   12 265 136
00002.M2TS      4353 (0x1101)   0x86            DTS-HD MA       bel (Belarusian)        7665,542                1 788                   1 712 860 340   10 493 094
00002.M2TS      4608 (0x1200)   0x90            PGS             eng (English)           7665,542                11                      10 755 176      63 518
QUICK SUMMARY:
Disc Title: B тумане_D
Disc Size: 23 578 150 636 bytes
Protection: AACS
BD-Java: No
Playlist: 00000.MPLS
Size: 21 447 075 840 bytes
Length: 2:07:45.708
Total Bitrate: 22,38 Mbps
Video: MPEG-4 AVC Video / 16997 kbps / 1080p / 24 fps / 16:9 / High Profile 4.1
Audio: Belarusian / LPCM Audio / 2.0 / 48 kHz / 2304 kbps / 24-bit
Audio: Belarusian / DTS-HD Master Audio / 5.1 / 48 kHz / 1788 kbps / 16-bit (DTS Core: 5.1 / 48 kHz / 1509 kbps / 16-bit)
Subtitle: English / 11,224 kbps
********************
PLAYLIST: 00002.MPLS
********************
Код:
Total   Video
Title                                                           Codec   Length  Movie Size      Disc Size       Bitrate Bitrate Main Audio Track                          Secondary Audio Track
-----                                                           ------  ------- --------------  --------------  ------- ------- ------------------                        ---------------------
00002.MPLS                                                      AVC     0:20:45 1 451 864 064   23 578 150 636  9,33    7,10    LPCM 2.0 1536Kbps (48kHz/16-bit)
Код:
DISC INFO:
Disc Title:     B тумане_D
Disc Size:      23 578 150 636 bytes
Protection:     AACS
BD-Java:        No
Extras:         50Hz Content
BDInfo:         0.5.8
PLAYLIST REPORT:
Name:                   00002.MPLS
Length:                 0:20:45.160 (h:m:s.ms)
Size:                   1 451 864 064 bytes
Total Bitrate:          9,33 Mbps
VIDEO:
Codec                   Bitrate             Description
-----                   -------             -----------
MPEG-4 AVC Video        7102 kbps           576i / 25 fps / 4:3 / High Profile 4.1
AUDIO:
Codec                           Language        Bitrate         Description
-----                           --------        -------         -----------
LPCM Audio                      Belarusian      1536 kbps       2.0 / 48 kHz / 1536 kbps / 16-bit
FILES:
Name            Time In         Length          Size            Total Bitrate
----            -------         ------          ----            -------------
00005.M2TS      0:00:00.000     0:20:45.160     1 451 864 064   9 328
CHAPTERS:
Number          Time In         Length          Avg Video Rate  Max 1-Sec Rate  Max 1-Sec Time  Max 5-Sec Rate  Max 5-Sec Time  Max 10Sec Rate  Max 10Sec Time  Avg Frame Size  Max Frame Size  Max Frame Time
------          -------         ------          --------------  --------------  --------------  --------------  --------------  --------------  --------------  --------------  --------------  --------------
1               0:00:00.000     0:20:45.160     7 102 kbps      8 981 kbps      00:08:58.960    8 485 kbps      00:08:54.720    8 391 kbps      00:08:49.920    35 511 bytes    74 305 bytes    00:14:07.839
STREAM DIAGNOSTICS:
File            PID             Type            Codec           Language                Seconds                 Bitrate                 Bytes           Packets
----            ---             ----            -----           --------                --------------          --------------          -------------   -----
00005.M2TS      4113 (0x1011)   0x1B            AVC                                     1245,040                7 103                   1 105 419 905   6 025 866
00005.M2TS      4352 (0x1100)   0x80            LPCM            bel (Belarusian)        1245,040                1 543                   240 066 848     1 494 192
QUICK SUMMARY:
Disc Title: B тумане_D
Disc Size: 23 578 150 636 bytes
Protection: AACS
BD-Java: No
Playlist: 00002.MPLS
Size: 1 451 864 064 bytes
Length: 0:20:45.160
Total Bitrate: 9,33 Mbps
Video: MPEG-4 AVC Video / 7102 kbps / 576i / 25 fps / 4:3 / High Profile 4.1
Audio: Belarusian / LPCM Audio / 2.0 / 48 kHz / 1536 kbps / 16-bit
********************
PLAYLIST: 00001.MPLS
********************
Код:
Total   Video
Title                                                           Codec   Length  Movie Size      Disc Size       Bitrate Bitrate Main Audio Track                          Secondary Audio Track
-----                                                           ------  ------- --------------  --------------  ------- ------- ------------------                        ---------------------
00001.MPLS                                                      AVC     0:01:41 289 363 968     23 578 150 636  22,70   19,92   LPCM 2.0 1536Kbps (48kHz/16-bit)
Код:
DISC INFO:
Disc Title:     B тумане_D
Disc Size:      23 578 150 636 bytes
Protection:     AACS
BD-Java:        No
Extras:         50Hz Content
BDInfo:         0.5.8
PLAYLIST REPORT:
Name:                   00001.MPLS
Length:                 0:01:41.958 (h:m:s.ms)
Size:                   289 363 968 bytes
Total Bitrate:          22,70 Mbps
VIDEO:
Codec                   Bitrate             Description
-----                   -------             -----------
MPEG-4 AVC Video        19922 kbps          1080p / 24 fps / 16:9 / High Profile 4.1
AUDIO:
Codec                           Language        Bitrate         Description
-----                           --------        -------         -----------
LPCM Audio                      Belarusian      1536 kbps       2.0 / 48 kHz / 1536 kbps / 16-bit
FILES:
Name            Time In         Length          Size            Total Bitrate
----            -------         ------          ----            -------------
00004.M2TS      0:00:00.000     0:01:41.958     289 363 968     22 704
CHAPTERS:
Number          Time In         Length          Avg Video Rate  Max 1-Sec Rate  Max 1-Sec Time  Max 5-Sec Rate  Max 5-Sec Time  Max 10Sec Rate  Max 10Sec Time  Avg Frame Size  Max Frame Size  Max Frame Time
------          -------         ------          --------------  --------------  --------------  --------------  --------------  --------------  --------------  --------------  --------------  --------------
1               0:00:00.000     0:01:41.958     19 922 kbps     35 985 kbps     00:00:32.333    34 231 kbps     00:00:29.208    30 110 kbps     00:00:24.333    103 760 bytes   307 703 bytes   00:00:32.375
STREAM DIAGNOSTICS:
File            PID             Type            Codec           Language                Seconds                 Bitrate                 Bytes           Packets
----            ---             ----            -----           --------                --------------          --------------          -------------   -----
00004.M2TS      4113 (0x1011)   0x1B            AVC                                     101,875                 19 938                  253 901 521     1 381 326
00004.M2TS      4352 (0x1100)   0x80            LPCM            bel (Belarusian)        101,875                 1 544                   19 657 888      122 352
QUICK SUMMARY:
Disc Title: B тумане_D
Disc Size: 23 578 150 636 bytes
Protection: AACS
BD-Java: No
Playlist: 00001.MPLS
Size: 289 363 968 bytes
Length: 0:01:41.958
Total Bitrate: 22,70 Mbps
Video: MPEG-4 AVC Video / 19922 kbps / 1080p / 24 fps / 16:9 / High Profile 4.1
Audio: Belarusian / LPCM Audio / 2.0 / 48 kHz / 1536 kbps / 16-bit

Скриншоты

Скриншоты доп. материалов

Other forum [Profile] [PM]

Dracula

Longevity: 7 years 11 months

Posts: 11001

Торрент-статистика

Post 10-Oct-2013 20:48 (after 1 day 14 hours)

Топик был перенесен из форума Зарубежное кино (HD Video) в форум Наше кино


Delia
 
Display posts from previous:    
Reply to topic

The time now is: Today 13:45

All times are GMT + 3 Hours



You cannot post new topics in this forum
You cannot reply to topics in this forum
You cannot edit your posts in this forum
You cannot delete your posts in this forum
You cannot vote in polls in this forum
You cannot attach files in this forum
You cannot download files in this forum