Today is a free download without charge Download

Зайчик из января (Иосиф Барбэ) [1991, Рисованный мультфильм, VHSRip]

Reply to topic
 
Author
Message

Omen ®

Longevity: 7 years 11 months

Posts: 181087

Торрент-статистика

Post 09-Oct-2013 05:59

[Quote]

Зайчик из января
Страна: СССР
Жанр: Рисованный мультфильм
Продолжительность: 00:10:07
Год выпуска: 1991
Русские субтитры: нет
Режиссёр: Иосиф Барбэ
Описание: Мультипликационный фильм для детей о заяньке, который встретил весну
Доп. информация: Художник: Дана Куля,Маша Близнюк
Раздача группы:
Особую благодарность выражаю delfy1 за предоставленный материал.
Качество: VHSRip
Формат: AVI
Видео: 640x480 (1.33:1), 25 fps, XviD build 50 ~1145 kbps avg, 0.15 bit/pixel
Аудио: 44.100 kHz, MPEG Layer 3, 2 ch, ~128.00 kbps avg
Субтитры: нет

Подробные технические данные

Format : AVIFormat/Info : Audio Video InterleaveFile size : 93.2 MiBDuration : 10mn 7sOverall bit rate : 1 286 KbpsWriting application : MEncoder SVN-r30881(20100311-gcc4.3.3)Writing library : MPlayer
VideoID : 0Format : MPEG-4 VisualFormat profile : Advanced [email protected] settings, BVOP : 2Format settings, QPel : NoFormat settings, GMC : No warppointsFormat settings, Matrix : Default (H.263)Codec ID : XVIDCodec ID/Hint : XviDDuration : 10mn 7sBit rate : 1 146 KbpsWidth : 640 pixelsHeight : 480 pixelsDisplay aspect ratio : 1.392Original display aspect ratio : 4:3Frame rate : 25.000 fpsColor space : YUVChroma subsampling : 4:2:0Bit depth : 8 bitsScan type : ProgressiveCompression mode : LossyBits/(Pixel*Frame) : 0.149Stream size : 83.0 MiB (89%)Writing library : XviD 1.2.1 (UTC 2008-12-04)
AudioID : 1Format : MPEG AudioFormat version : Version 1Format profile : Layer 3Mode : Joint stereoMode extension : MS StereoCodec ID : 55Codec ID/Hint : MP3Duration : 10mn 7sBit rate mode : ConstantBit rate : 128 KbpsChannel(s) : 2 channelsSampling rate : 44.1 KHzCompression mode : LossyDelay relative to video : 40msStream size : 9.27 MiB (10%)Alignment : Aligned on interleavesInterleave, duration : 26 ms (0.65 video frame)Interleave, preload duration : 522 ms

Скриншоты

Other forum [Profile] [PM]
Display posts from previous:    
Reply to topic

The time now is: Today 19:12

All times are GMT + 3 Hours



You cannot post new topics in this forum
You cannot reply to topics in this forum
You cannot edit your posts in this forum
You cannot delete your posts in this forum
You cannot vote in polls in this forum
You cannot attach files in this forum
You cannot download files in this forum