Today is a free download without charge Download

Discovery: Почему? Вопросы мироздания. Существуют ли параллельные Вселенные? / Curiosity. Is There a Parallel Universes? (2011) HDTVRip [H.264/720p-LQ] [Сезон 1, серия 5]

Reply to topic
 
Author
Message

UndegraundMen ®

Longevity: 7 years 7 months

Posts: 25145

Торрент-статистика

Post 07-Oct-2013 21:46

[Quote]

Discovery: Почему? Вопросы мироздания. Существуют ли параллельные Вселенные? / Curiosity. Is There a Parallel Universes? (2011) HDTVRip [H.264/720p-LQ] [Сезон 1, серия 5]- Режиссер / Телекомпания: Discovery Channel
Страна: США
Год выпуска: 2011
Жанр: Документальный, научно-популярный, расследования
Описание: Одних интересует техника, других – география, третьих – астрономия, но есть вопросы, которые волнуют практически каждого человека независимо от возраста, образования и увлечений. Discovery Channel вместе со зрителями будет искать на них ответы в самом масштабном проекте в истории канала, который выходит в эфир под названием "Почему? Вопросы мироздания". Есть ли разумная жизнь на других планетах? Почему обычные люди могут превращаться в жестоких монстров? Как появилось все сущее?
В этом фильме: Параллельные Вселенные, в которых всё немного не так, как у нас... Существует ли другая Земля, где людям все еще угрожают динозавры, а в небе светит несколько Солнц? Где искать эти необычные Вселенные и чем они могут угрожать Человечеству?
Продолжительность: 00:42:00
Перевод: Одноголосый закадровый (профессиональный, НТВ Плюс)
Формат файла: MKV
Видеокодек: MPEG-4 AVC/H.264
Битрейт видео: ~2 700 Кбит/с
Размер кадра: 1280 x 720
Качество видео: HDTVRip [720p-LQ]
Аудио:
1. [русский] MP3, 2 ch, 128 Кбит/с
2. [english] AC3, 6 ch, 448 Кбит/с

MediaInfo

General
Unique ID : 204659745525706169475137620915665490314 (0x99F80881E22464EAB73042E5F813D18A)
Complete name : I:\Discovery.Curiosity.s01.ep05.Parallel.Universes.HDTVRip.720p.mkv
Format : Matroska
Format version : Version 2
File size : 1 005 MiB
Duration : 42mn 0s
Overall bit rate : 3 345 Kbps
Encoded date : UTC 2012-04-19 11:17:24
Writing application : mkvmerge v5.4.0 ('Piper') built on Mar 10 2012 13:34:39
Writing library : libebml v1.2.3 + libmatroska v1.3.0
Video
ID : 1
Format : AVC
Format/Info : Advanced Video Codec
Format profile : [url=mailto:[email protected]][email protected][/url]
Format settings, CABAC : Yes
Format settings, ReFrames : 4 frames
Codec ID : V_MPEG4/ISO/AVC
Duration : 42mn 0s
Bit rate : 2 702 Kbps
Width : 1 280 pixels
Height : 720 pixels
Display aspect ratio : 16:9
Frame rate mode : Constant
Frame rate : 29.970 fps
Color space : YUV
Chroma subsampling : 4:2:0
Bit depth : 8 bits
Scan type : Progressive
Bits/(Pixel*Frame) : 0.098
Stream size : 812 MiB (81%)
Writing library : x264 core 115 r1995 c1e60b9
Encoding settings : cabac=1 / ref=3 / deblock=1:0:0 / analyse=0x3:0x113 / me=hex / subme=7 / psy=1 / psy_rd=1.00:0.00 / mixed_ref=1 / me_range=16 / chroma_me=1 / trellis=1 / 8x8dct=1 / cqm=0 / deadzone=21,11 / fast_pskip=1 / chroma_qp_offset=-2 / threads=12 / sliced_threads=0 / nr=0 / decimate=1 / interlaced=0 / bluray_compat=0 / constrained_intra=0 / bframes=3 / b_pyramid=2 / b_adapt=1 / b_bias=0 / direct=1 / weightb=1 / open_gop=0 / weightp=2 / keyint=100 / keyint_min=10 / scenecut=40 / intra_refresh=0 / rc_lookahead=40 / rc=crf / mbtree=1 / crf=21.0 / qcomp=0.60 / qpmin=0 / qpmax=69 / qpstep=4 / vbv_maxrate=20000 / vbv_bufsize=25000 / crf_max=0.0 / nal_hrd=none / ip_ratio=1.40 / aq=1:1.00
Default : Yes
Forced : No
Audio #1
ID : 2
Format : MPEG Audio
Format version : Version 1
Format profile : Layer 3
Codec ID : A_MPEG/L3
Codec ID/Hint : MP3
Duration : 42mn 0s
Bit rate mode : Constant
Bit rate : 128 Kbps
Channel(s) : 2 channels
Sampling rate : 48.0 KHz
Compression mode : Lossy
Stream size : 38.5 MiB (4%)
Language : Russian
Default : Yes
Forced : No
Audio #2
ID : 3
Format : AC-3
Format/Info : Audio Coding 3
Mode extension : CM (complete main)
Format settings, Endianness : Big
Codec ID : A_AC3
Duration : 42mn 0s
Bit rate mode : Constant
Bit rate : 448 Kbps
Channel(s) : 6 channels
Channel positions : Front: L C R, Side: L R, LFE
Sampling rate : 48.0 KHz
Bit depth : 16 bits
Compression mode : Lossy
Stream size : 135 MiB (13%)
Language : English
Default : No
Forced : No
Скриншоты:
         
         
Пожалуйста, не уходите с раздачи - помогите докачать другим. Если понравился релиз - жмите кнопку "Спасибо"!
Other forum [Profile] [PM]
Display posts from previous:    
Reply to topic

The time now is: Today 02:25

All times are GMT + 3 Hours



You cannot post new topics in this forum
You cannot reply to topics in this forum
You cannot edit your posts in this forum
You cannot delete your posts in this forum
You cannot vote in polls in this forum
You cannot attach files in this forum
You cannot download files in this forum