Today is a free download without charge Download

Не повезло (Василий Шестовец) [2013, Россия, Драма, фантастика, BDRip 1080p]

Reply to topic
 
Author
Message

Omen ®

Longevity: 8 years 10 months

Posts: 181086

Торрент-статистика

Post 06-Oct-2013 21:21

[Quote]

Не повезло
Страна: Россия
Студия: 1st River
Жанр: Драма, фантастика
Год выпуска: 2013
Продолжительность: 0:47:27
Перевод: Не требуется
Cубтитры: английские
Режиссер: Василий Шестовец
В ролях: Вадим Замараев, Михаил Марченко, Игорь Чернышёв, Александр Стрелков, Ольга Юренко, Борис Сазонов и др.
Описание: Следователь Александр Гордеев пытается вывести на чистую воду подозрительно везучего человека - Артура Ваймана, на которого буквально сыплются различные выигрыши. Подозреваемый все списывает на свое природное везение и предлагает провести неформальный следственный эксперимент. Гордеев не верит Вайману даже когда лотерейные билеты, купленные на его глазах, оказываются выигрышными. Везунчик идет дальше и вручает следователю билет Всероссийской Федеральной лотереи с огромным джекпотом. Билет выигрывает! Ошеломленный полицейский уже готов поверить в аномальную удачу этого человека, когда снова сталкивается с ним в криминальных обстоятельствах. Кому повезет на этот раз?
Сэмпл: http://multi-up.com/909681
Тип релиза: BDRip 1080p
Контейнер: MKV
Видео: MPEG4 Video (H264), 1920x1080, 16:9, 9618 Kbps, 25fps
Аудио: Русский AC3 5.1, 48 kHz, 448 kbps

MediaInfo

General
Unique ID : 193305042372503914707181757060481770584 (0x916D326B5B2CC21D980B238278DB6458)
Complete name : F:\Video\Ne.povezlo.2013.HDRip.1080p.rus.mkv
Format : Matroska
Format version : Version 4 / Version 2
File size : 3.42 GiB
Duration : 47mn 37s
Overall bit rate : 10.3 Mbps
Encoded date : UTC 2013-09-04 06:57:02
Writing application : mkvmerge v6.3.0 ('You can't stop me!') built on Jun 28 2013 20:09:41
Writing library : libebml v1.3.0 + libmatroska v1.4.0
Video
ID : 1
Format : AVC
Format/Info : Advanced Video Codec
Format profile : [email protected]
Format settings, CABAC : No
Format settings, ReFrames : 1 frame
Format settings, GOP : M=1, N=12
Codec ID : V_MPEG4/ISO/AVC
Duration : 47mn 37s
Bit rate : 9 618 Kbps
Width : 1 920 pixels
Height : 1 080 pixels
Display aspect ratio : 16:9
Frame rate mode : Constant
Frame rate : 25.000 fps
Color space : YUV
Chroma subsampling : 4:2:0
Bit depth : 8 bits
Scan type : Progressive
Bits/(Pixel*Frame) : 0.186
Stream size : 3.20 GiB (94%)
Default : Yes
Forced : No
Audio
ID : 3
Format : AC-3
Format/Info : Audio Coding 3
Mode extension : CM (complete main)
Format settings, Endianness : Big
Codec ID : A_AC3
Duration : 47mn 37s
Bit rate mode : Constant
Bit rate : 448 Kbps
Channel(s) : 6 channels
Channel positions : Front: L C R, Side: L R, LFE
Sampling rate : 48.0 KHz
Bit depth : 16 bits
Compression mode : Lossy
Stream size : 153 MiB (4%)
Default : Yes
Forced : No
Text
ID : 2
Format : UTF-8
Codec ID : S_TEXT/UTF8
Codec ID/Info : UTF-8 Plain Text
Default : Yes
Forced : No

Скриншоты

Other forum [Profile] [PM]
Display posts from previous:    
Reply to topic

The time now is: Today 14:46

All times are GMT + 3 Hours



You cannot post new topics in this forum
You cannot reply to topics in this forum
You cannot edit your posts in this forum
You cannot delete your posts in this forum
You cannot vote in polls in this forum
You cannot attach files in this forum
You cannot download files in this forum