Today is a free download without charge Download

Серфер / Surfer, Dude (С.Р. Биндлер / S.R. Bindler) [2008, США, комедия, BDRip] DVO

Reply to topic
 
Author
Message

Delia ®

Gender:

Longevity: 9 years 1 month

Posts: 1821

Торрент-статистика

Post 08-Oct-2011 21:26

[Quote]

Серфер Surfer, Dude Страна: США
Жанр: комедия
Год выпуска: 2008
Продолжительность: 01:25:30
Перевод: Любительский (двухголосый закадровый)
Режиссер: С.Р. Биндлер
В ролях: Мэттью МакКонахи, Вуди Харрельсон, Уилли Нельсон, Алекси Гилмор, К.Д. Ауберт, Джеффри Нордлинг, Сара Райт, Захари Найтон, Кассандра Хепберн, Тодд Стэшвик, Натан Филлипс, Рамон Родригез, Трэвис Фиммел
Описание: Стив Аддингтон серфенгист от кончиков выгоревших волос до кончиков пальцев ног... босых, это его профессия и стиль жизни. В одно прохладное лето Стив возвращается в Малибу и находит свой родной город изменившимся до неузнаваемости. В городе властвует Госпожа Виртуальная Реальность, люди перестали жить своей жизнью, а все больше предпочитают наблюдать за происходящем по телевидению. Но самое главное - куда пропали волны? Полный штиль - это полоса отчаяния, неприятности преследуют Стива одна за другой. Удастся ли ему не свихнуться от этого плоского безумия, сумеет ли Стив не утонуть в 3D реальности и дождаться своей волны?

Качество видео: BDRip(Исх. BDRemux)
Формат видео:AVI]
Видео: 720x400 (1.80:1), 23.976 fps, XviD build 50 ~1972 kbps avg, 0.28 bit/pixel
Аудио: 48 kHz, AC3 Dolby Digital, 3/2 (L,C,R,l,r) + LFE ch, ~448 kbps

AviInfo

File: Surfer.chopper887.avi
Title: Surfer.chopper887
Author: chopper887
Copyleft: /*spam*/
Genre: Comedy
Category: Movie
Filesize: 1488.58 Mb ( 1 560 885 248 bytes )
Play length: 01:25:39.133 (123216 frames)
Subtitles: Not Present
Video: 720x400 (1.80:1), 23.976 fps, XviD build 50 ~1972 kbps avg, 0.28 bit/pixel
Audio: 48 kHz, AC3 Dolby Digital, 3/2 (L,C,R,l,r) + LFE ch, ~448 kbps

MediaInfo

General
Complete name : L:\Surfer.chopper887.avi
Format : AVI
Format/Info : Audio Video Interleave
File size : 1.45 GiB
Duration : 1h 25mn
Overall bit rate : 2 430 Kbps
Movie name : Surfer.chopper887
Director : chopper887
Genre : Comedy
Writing application : VirtualDubMod 1.5.10.2 (build 2540/release)
Original source form/Name : Movie
Copyright : /*spam*/
Video
ID : 0
Format : MPEG-4 Visual
Format profile : [email protected]
Format settings, BVOP : Yes
Format settings, QPel : No
Format settings, GMC : No warppoints
Format settings, Matrix : Custom
Codec ID : XVID
Codec ID/Hint : XviD
Duration : 1h 25mn
Bit rate : 1 972 Kbps
Width : 720 pixels
Height : 400 pixels
Display aspect ratio : 16:9
Frame rate : 23.976 fps
Resolution : 24 bits
Colorimetry : 4:2:0
Scan type : Progressive
Bits/(Pixel*Frame) : 0.286
Stream size : 1.18 GiB (81%)
Writing library : XviD 1.2.1 (UTC 2008-12-04)
Audio
ID : 1
Format : AC-3
Format/Info : Audio Coding 3
Codec ID : 2000
Duration : 1h 25mn
Bit rate mode : Constant
Bit rate : 448 Kbps
Channel(s) : 6 channels
Channel positions : Front: L C R, Surround: L R, LFE
Sampling rate : 48.0 KHz
Stream size : 274 MiB (18%)
Alignment : Split accross interleaves
Interleave, duration : 42 ms (1.00 video frame)
Interleave, preload duration : 500 ms

Скриншоты

         [imgs][/imgs]    

_________________
Человек – это канат, натянутый между животным и сверхчеловеком, – канат над пропастью.
В человеке ценно то, что он мост, а не цель. Фридрих Ницше
Other forum [Profile] [PM]
Display posts from previous:    
Reply to topic

The time now is: Today 05:58

All times are GMT + 3 Hours



You cannot post new topics in this forum
You cannot reply to topics in this forum
You cannot edit your posts in this forum
You cannot delete your posts in this forum
You cannot vote in polls in this forum
You cannot attach files in this forum
You cannot download files in this forum